\m/ 80's metal \m/

Информационно-аналитический форум "80 см пыли" (In Search We Trust) "У нас никто никуда не спешит"
Me For You - http://me-4u.com
It is currently 03 Jun 2020

All times are UTC + 3 hours

Spoiler
Chat - temporary registration for foreign users (please leave your application here)







Post new topic Reply to topic  [ 6 posts ] 
Author Message
 
PostPosted: 02 Nov 2008 
Труъ
Joined: 23 Jun 2008
Posts: 106
Lоcаtion: Кострома
Age: 35
Name: .
Последний альбомец этой австралийской трэшевой бригады очень недурен.
Хотелось бы надыбать и первенец Equalibrium 2001 года.

Black Reign - 2001 - Equalibrium
Image
1. New Age Generation
2. Diesel
3. Elizabeta
4. Evil Souls
5. Visions
6. I Am Death
7. Gothic
8. Paradise
9. Blood

_________________
Thrash Expert


Top
 Profile E-mail  
 
 
PostPosted: 03 Nov 2008 
труъ антисионист
User avatar
Joined: 01 Aug 2007
Posts: 4544
Lоcаtion: Откуда и большинство из нас
Age: 39
Name: Дядя Вова
Присоединяюсь к просьбе!

_________________
Image
Image


Top
 Profile  
 
 
PostPosted: 09 Oct 2018 
Rara avis
User avatar
Joined: 27 Jan 2009
Posts: 5604
Name: .
Можно купить http://www.blackreignmetal.com/merch.html


Top
 Profile E-mail  
 
 
PostPosted: 21 May 2020 
Работнечег
User avatar
Joined: 28 Aug 2007
Posts: 6256
Lоcаtion: г. Москва
Age: 31
Name: Дима
Black Reign - Black Reign (Demo) (1994)

Image

Label: Independent
Genre: Thrash Metal
Country: Australia
Format: Flac + Log + Cue + Covers
Size: 188 Mb

Line-Up:
Adam Moxon - Bass
Ian Pilgrim - Drums
Jason Martin - Guitars
Michael Demov - Vocals, Guitars (Lethal Vendetta, ex-Dark Order, ex-Metreya)


Tracklist:
1. Rush
2. Fact of Life
3. Unholy Father
4. Child of War
5. Death

LOG
Exact Audio Copy V1.3 from 2. September 2016

EAC extraction logfile from 30. October 2019, 16:11

Black Reign / Black Reign (Demo)

Used drive : PIONEER DVD-RW DVR-221 Adapter: 1 ID: 0

Read mode : Secure
Utilize accurate stream : Yes
Defeat audio cache : Yes
Make use of C2 pointers : No

Read offset correction : 6
Overread into Lead-In and Lead-Out : No
Fill up missing offset samples with silence : Yes
Delete leading and trailing silent blocks : No
Null samples used in CRC calculations : Yes
Used interface : Native Win32 interface for Win NT & 2000

Used output format : User Defined Encoder
Selected bitrate : 768 kBit/s
Quality : High
Add ID3 tag : No
Command line compressor : C:\Program Files (x86)\Exact Audio Copy\FLAC\FLAC.EXE
Additional command line options : -6 -V -T "ARTIST=%artist%" -T "TITLE=%title%" -T "ALBUM=%albumtitle%" -T "DATE=%year%" -T "TRACKNUMBER=%tracknr%" -T "GENRE=%genre%" -T "COMMENT=%comment%" -T "BAND=%albuminterpret%" -T "ALBUMARTIST=%albuminterpret%" -T "COMPOSER=%composer%" %haslyrics%--tag-from-file=LYRICS="%lyricsfile%"%haslyrics% -T "DISCNUMBER=%cdnumber%" -T "TOTALDISCS=%totalcds%" -T "TOTALTRACKS=%numtracks%" %hascover%--picture="%coverfile%"%hascover% %source% -o %dest%


TOC of the extracted CD

Track | Start | Length | Start sector | End sector
---------------------------------------------------------
1 | 0:00.00 | 4:20.59 | 0 | 19558
2 | 4:20.59 | 4:04.21 | 19559 | 37879
3 | 8:25.05 | 4:12.06 | 37880 | 56785
4 | 12:37.11 | 7:34.24 | 56786 | 90859
5 | 20:11.35 | 5:37.30 | 90860 | 116164


Range status and errors

Selected range

Filename D:\Музыка\Lossless\Black Reign\Black Reign (Demo)(1994)\Black Reign - Black Reign (Demo).wav

Peak level 100.0 %
Extraction speed 5.5 X
Range quality 100.0 %
Copy CRC A97FAA10
Copy OK

No errors occurred


AccurateRip summary

Track 1 not present in database
Track 2 not present in database
Track 3 not present in database
Track 4 not present in database
Track 5 not present in database

None of the tracks are present in the AccurateRip database

End of status report

---- CUETools DB Plugin V2.1.6

[CTDB TOCID: gPvQbzHiKeYMftryWX1af_VSADI-] disk not present in database
Submit result: gPvQbzHiKeYMftryWX1af_VSADI- has been uploaded

CUE
REM GENRE "Thrash Metal"
REM DATE 1994
REM DISCID 34060C05
REM COMMENT "ExactAudioCopy v1.3"
PERFORMER "Black Reign"
TITLE "Black Reign (Demo)"
REM COMPOSER ""
FILE "Black Reign - Black Reign (Demo).flac" WAVE
TRACK 01 AUDIO
TITLE "Rush"
PERFORMER "Black Reign"
REM COMPOSER ""
INDEX 01 00:00:00
TRACK 02 AUDIO
TITLE "Fact Of Life"
PERFORMER "Black Reign"
REM COMPOSER ""
INDEX 00 04:18:57
INDEX 01 04:20:59
TRACK 03 AUDIO
TITLE "Unholy Father"
PERFORMER "Black Reign"
REM COMPOSER ""
INDEX 00 08:23:03
INDEX 01 08:25:05
TRACK 04 AUDIO
TITLE "Child Of War"
PERFORMER "Black Reign"
REM COMPOSER ""
INDEX 00 12:35:09
INDEX 01 12:37:11
TRACK 05 AUDIO
TITLE "Death"
PERFORMER "Black Reign"
REM COMPOSER ""
INDEX 00 20:09:33
INDEX 01 20:11:35


Yadi


Black Reign - Equalibrium (2001)

Image

Label: Independent
Genre: Thrash Metal
Country: Australia
Format: Flac + Log + Cue + Covers
Size: 282 Mb

Line-Up:
Borc Todorovski - Drums
Michael Demov - Vocals, Guitars, Bass (Lethal Vendetta, ex-Dark Order, ex-Metreya)


Tracklist:
1. New Age Generation
2. Diesel
3. Elizabeta
4. Evil Souls
5. Visions
6. I Am Death
7. Gothic
8. Paradise
9. Blood

LOG
Exact Audio Copy V1.3 from 2. September 2016

EAC extraction logfile from 30. October 2019, 16:23

Black Reign / Equalibrium

Used drive : PIONEER DVD-RW DVR-221 Adapter: 1 ID: 0

Read mode : Secure
Utilize accurate stream : Yes
Defeat audio cache : Yes
Make use of C2 pointers : No

Read offset correction : 6
Overread into Lead-In and Lead-Out : No
Fill up missing offset samples with silence : Yes
Delete leading and trailing silent blocks : No
Null samples used in CRC calculations : Yes
Used interface : Native Win32 interface for Win NT & 2000

Used output format : User Defined Encoder
Selected bitrate : 768 kBit/s
Quality : High
Add ID3 tag : No
Command line compressor : C:\Program Files (x86)\Exact Audio Copy\FLAC\FLAC.EXE
Additional command line options : -6 -V -T "ARTIST=%artist%" -T "TITLE=%title%" -T "ALBUM=%albumtitle%" -T "DATE=%year%" -T "TRACKNUMBER=%tracknr%" -T "GENRE=%genre%" -T "COMMENT=%comment%" -T "BAND=%albuminterpret%" -T "ALBUMARTIST=%albuminterpret%" -T "COMPOSER=%composer%" %haslyrics%--tag-from-file=LYRICS="%lyricsfile%"%haslyrics% -T "DISCNUMBER=%cdnumber%" -T "TOTALDISCS=%totalcds%" -T "TOTALTRACKS=%numtracks%" %hascover%--picture="%coverfile%"%hascover% %source% -o %dest%


TOC of the extracted CD

Track | Start | Length | Start sector | End sector
---------------------------------------------------------
1 | 0:00.00 | 2:32.40 | 0 | 11439
2 | 2:32.40 | 4:40.61 | 11440 | 32500
3 | 7:13.26 | 7:52.37 | 32501 | 67937
4 | 15:05.63 | 4:55.35 | 67938 | 90097
5 | 20:01.23 | 2:52.26 | 90098 | 103023
6 | 22:53.49 | 6:37.42 | 103024 | 132840
7 | 29:31.16 | 3:24.40 | 132841 | 148180
8 | 32:55.56 | 4:08.02 | 148181 | 166782
9 | 37:03.58 | 3:03.73 | 166783 | 180580


Range status and errors

Selected range

Filename D:\Музыка\Lossless\Black Reign\Equalibrium (2001)\Black Reign - Equalibrium.wav

Peak level 100.0 %
Extraction speed 6.0 X
Range quality 100.0 %
Copy CRC F9C2802E
Copy OK

No errors occurred


AccurateRip summary

Track 1 cannot be verified as accurate (confidence 1) [2FD3A7AD], AccurateRip returned [AB63945B] (AR v2)
Track 2 cannot be verified as accurate (confidence 1) [AAD78FD0], AccurateRip returned [2BBFD794] (AR v2)
Track 3 cannot be verified as accurate (confidence 1) [9E4418BC], AccurateRip returned [1C6EB4F6] (AR v2)
Track 4 cannot be verified as accurate (confidence 1) [83BF57D1], AccurateRip returned [8C2D0D14] (AR v2)
Track 5 cannot be verified as accurate (confidence 1) [F2612A86], AccurateRip returned [5124B5BF] (AR v2)
Track 6 cannot be verified as accurate (confidence 1) [0BEEA253], AccurateRip returned [ED1E6E9D] (AR v2)
Track 7 cannot be verified as accurate (confidence 1) [02644C87], AccurateRip returned [3E9DEB9A] (AR v2)
Track 8 cannot be verified as accurate (confidence 1) [442642CF], AccurateRip returned [912156A5] (AR v2)
Track 9 cannot be verified as accurate (confidence 1) [A4BBFC78], AccurateRip returned [6D630961] (AR v2)

No tracks could be verified as accurate
You may have a different pressing from the one(s) in the database

End of status report

---- CUETools DB Plugin V2.1.6

[CTDB TOCID: ygy.324tOE4Nyc6WxP4dSZdEH90-] disk not present in database
Submit result: ygy.324tOE4Nyc6WxP4dSZdEH90- has been uploaded

CUE
REM GENRE "Thrash Metal"
REM DATE 2001
REM DISCID 73096709
REM COMMENT "ExactAudioCopy v1.3"
PERFORMER "Black Reign"
TITLE "Equalibrium"
REM COMPOSER ""
FILE "Black Reign - Equalibrium.flac" WAVE
TRACK 01 AUDIO
TITLE "New Age Generation"
PERFORMER "Black Reign"
REM COMPOSER ""
INDEX 01 00:00:00
TRACK 02 AUDIO
TITLE "Diesel"
PERFORMER "Black Reign"
REM COMPOSER ""
INDEX 01 02:32:40
TRACK 03 AUDIO
TITLE "Elizabeta"
PERFORMER "Black Reign"
REM COMPOSER ""
INDEX 01 07:13:26
TRACK 04 AUDIO
TITLE "Evil Soul"
PERFORMER "Black Reign"
REM COMPOSER ""
INDEX 01 15:05:63
TRACK 05 AUDIO
TITLE "Visions"
PERFORMER "Black Reign"
REM COMPOSER ""
INDEX 01 20:01:23
TRACK 06 AUDIO
TITLE "I Am Death"
PERFORMER "Black Reign"
REM COMPOSER ""
INDEX 01 22:53:49
TRACK 07 AUDIO
TITLE "Gothic"
PERFORMER "Black Reign"
REM COMPOSER ""
INDEX 01 29:31:16
TRACK 08 AUDIO
TITLE "Paradise"
PERFORMER "Black Reign"
REM COMPOSER ""
INDEX 01 32:55:56
TRACK 09 AUDIO
TITLE "Blood"
PERFORMER "Black Reign"
REM COMPOSER ""
INDEX 01 37:03:58


Yadi

Демка позабойнее вышла, а на альбоме есть акустические вставки и я бы его уже как heavy/thrash охарактеризовал. В целом ничего выдающегося, но для тех годов вполне неплохо, слушается монолитно, но и выделить какие-то композиции сложно.


Top
 Profile E-mail  
 
 
PostPosted: 22 May 2020 
Хиппей (support team)
User avatar
Joined: 30 Jul 2007
Posts: 118676
Lоcаtion: Киев (Kyiv, UA)
Age: 46
Name: Andrey
:thanx: :thanx:

_________________


Top
 Profile E-mail  
 
 
PostPosted: 22 May 2020 
Прокъмитолист
User avatar
Joined: 12 Aug 2007
Posts: 6722
Lоcаtion: Санктъ-Петербуркъ
Age: 52
Name: Олекъ
:thanx:

_________________
прокъметол - это музыко, от которово есть прок (ы)


Top
 Profile  
 
Display posts from previous:  Sort by  
Post new topic Reply to topic  [ 6 posts ] 

All times are UTC + 3 hours


Who is online

Users browsing this forum: No registered users and 2 guests


You cannot post new topics in this forum
You cannot reply to topics in this forum
You cannot edit your posts in this forum
You cannot delete your posts in this forum
You cannot post attachments in this forum

Search for:
Яндекс.Метрика
Powered by phpBB © 2000, 2002, 2005, 2007 phpBB Group