\m/ 80's metal \m/

Информационно-аналитический форум "80 см пыли" (In Search We Trust) "У нас никто никуда не спешит"
Железнодорожная биржа - RailAgent
It is currently 25 Jun 2018

All times are UTC + 3 hours

Spoiler
Chat - temporary registration for foreign users (please leave your application here)







Post new topic Reply to topic  [ 9 posts ] 
Author Message
 
PostPosted: 25 Dec 2016 
Персональный статус
Joined: 30 Aug 2008
Posts: 326
Lоcаtion: Львов
Age: 44
Name: .Алексей
Ben Jackson Group - 2001 - Here I Come

Image

1. Feel Me
2. To My Surprise
3. Closer to Soul
4. The Bold One
5. Here I Come
6. Touched
7. Misty Rain
8. Your World or Mine
9. Flesh & Blood
10. The Bomb
11. Whistle in the Wind

В поиске первый альбом ,гитариста Crimson glory


Top
 Profile E-mail  
 
 
PostPosted: 25 Dec 2016 
Rara avis
User avatar
Joined: 27 Jan 2009
Posts: 4401
Name: .
https://rutracker.org/forum/viewtopic.php?t=3024739


Top
 Profile E-mail  
 
 
PostPosted: 25 Dec 2016 
Хиппей (support team)
User avatar
Joined: 30 Jul 2007
Posts: 104642
Lоcаtion: Киев (Kyiv, UA)
Age: 45
Name: Andrey
Эх, Лёша, Лёша... :(

Ах, Даша, Даша :kro: :kro: :kro:

_________________


Top
 Profile E-mail  
 
 
PostPosted: 25 Dec 2016 
Персональный статус
Joined: 30 Aug 2008
Posts: 326
Lоcаtion: Львов
Age: 44
Name: .Алексей
Благодарю :crazy: Не додумался название в поиск, без group забить .


Top
 Profile E-mail  
 
 
PostPosted: 25 Dec 2016 
Хиппей (support team)
User avatar
Joined: 30 Jul 2007
Posts: 104642
Lоcаtion: Киев (Kyiv, UA)
Age: 45
Name: Andrey
А оно и так хорошо ищется. Просто тебе лень было глаза опустить ниже первых 5-7 запросов в поиске :lloo:

https://www.google.com.ua/search?q=Ben+ ... sgGouaP4Cw

Image

_________________


Top
 Profile E-mail  
 
 
PostPosted: 25 Dec 2016 
Хиппей (support team)
User avatar
Joined: 30 Jul 2007
Posts: 104642
Lоcаtion: Киев (Kyiv, UA)
Age: 45
Name: Andrey
Ну и дальше я понудю, ибо ж парит.
Алексей, как можно так похабно относится к оформлению запроса?

Ок, указал ты имя исполнителя и название альбома, скопировал трэклист и добавил мизерное фото обложки, и... тебе приятно смотреть, на то, как именно ты это сделал?

Приходится, естественно,ради репутации форума всё после тебя переделывать и красивенько оформлять.
Пардон, будешь в свинарнике передавай им там привет всем.

_________________


Top
 Profile E-mail  
 
 
PostPosted: 25 Dec 2016 
Хиппей (support team)
User avatar
Joined: 30 Jul 2007
Posts: 104642
Lоcаtion: Киев (Kyiv, UA)
Age: 45
Name: Andrey
Второй альбом тоже пригодится...

Image

1. Turn It On
2. Mean Machine
3. All Over You
4. Falling Down
5. Ghost In The Mirror
6. Eyes of Ice
7. Far and Away
8. Heavy On My Mind
9. Break It

TPT: 42:07

_________________


Top
 Profile E-mail  
 
 
PostPosted: 25 Dec 2016 
Хиппей (support team)
User avatar
Joined: 30 Jul 2007
Posts: 104642
Lоcаtion: Киев (Kyiv, UA)
Age: 45
Name: Andrey
ulver73 wrote:
Ben Jackson Group - 2001 - Here I Come

К сожалению, альбом оказался альтернативным hard & heavy фуфлом :fingal:

3/10

Единственный трэк, который заслуживает внимания, это 8 песенка без моднявого звука и с мощным саундом - Your World or Mine

Ben Jackson - 2001 - Here I Come [ape]

Image Image Image

mirror: iFolder l Narod l M-Cloud

Image Image Image

log
Exact Audio Copy V0.99 prebeta 4 from 23. January 2008

Отчёт EAC об извлечении, выполненном 20. июня 2010, 14:57

Ben Jackson / Here I Come

Дисковод: Optiarc DVD RW AD-7173S Adapter: 2 ID: 0

Режим чтения : Достоверность
Использование точного потока : Да
Отключение кэша аудио : Да
Использование указателей C2 : Нет

Коррекция смещения при чтении : 48
Способность читать области Lead-in и Lead-out : Нет
Заполнение пропущенных сэмплов тишиной : Да
Удаление блоков с тишиной в начале и конце : Нет
При вычислениях CRC использовались нулевые сэмплы : Да
Интерфейс : Встроенный Win32-интерфейс для Win NT/2000

Выходной формат : Monkey's Audio (без потерь)
Выбранный битрейт : Normal Lossless Compression
Качество : Высокий
Добавление ID3-тэга : Да
Утилита сжатия : C:\Program Files\Monkey's Audio\MAC.exe


TOC извлечённого CD

Трек | Старт | Длительность | Начальный сектор | Конечный сектор
---------------------------------------------------------------------
1 | 0:00.00 | 5:13.08 | 0 | 23482
2 | 5:13.08 | 4:45.07 | 23483 | 44864
3 | 9:58.15 | 5:37.18 | 44865 | 70157
4 | 15:35.33 | 4:08.48 | 70158 | 88805
5 | 19:44.06 | 4:55.54 | 88806 | 110984
6 | 24:39.60 | 5:38.37 | 110985 | 136371
7 | 30:18.22 | 3:51.01 | 136372 | 153697
8 | 34:09.23 | 3:44.34 | 153698 | 170531
9 | 37:53.57 | 4:14.61 | 170532 | 189642
10 | 42:08.43 | 3:48.47 | 189643 | 206789
11 | 45:57.15 | 5:11.42 | 206790 | 230156


Характеристики диапазона извлечения и сообщения об ошибках

Выбранный диапазон

Имя файла D:\Music\Ben Jackson - Here I Come 2001\Ben Jackson - Here I Come.wav

Пиковый уровень 99.9 %
Качество диапазона 99.9 %
CRC копии 4DE8F9B2
Копирование... OK

Ошибок не произошло

Конец отчёта

cue
REM GENRE "Heavy Metal"
REM DATE 2001
REM DISCID 860BFC0B
REM COMMENT "ExactAudioCopy v0.99pb4"
PERFORMER "Ben Jackson"
TITLE "Here I Come"
FILE "Ben Jackson - Here I Come.ape" WAVE
TRACK 01 AUDIO
TITLE "Feel Me"
PERFORMER "Ben Jackson"
FLAGS DCP
INDEX 01 00:00:00
TRACK 02 AUDIO
TITLE "To My Surprize"
PERFORMER "Ben Jackson"
FLAGS DCP
INDEX 00 05:12:73
INDEX 01 05:13:08
TRACK 03 AUDIO
TITLE "Closer To Soul"
PERFORMER "Ben Jackson"
FLAGS DCP
INDEX 01 09:58:15
TRACK 04 AUDIO
TITLE "The Bold One"
PERFORMER "Ben Jackson"
FLAGS DCP
INDEX 00 15:34:41
INDEX 01 15:35:33
TRACK 05 AUDIO
TITLE "Here I Come"
PERFORMER "Ben Jackson"
FLAGS DCP
INDEX 00 19:43:71
INDEX 01 19:44:06
TRACK 06 AUDIO
TITLE "Touched"
PERFORMER "Ben Jackson"
FLAGS DCP
INDEX 00 24:38:36
INDEX 01 24:39:60
TRACK 07 AUDIO
TITLE "Misty Rain"
PERFORMER "Ben Jackson"
FLAGS DCP
INDEX 01 30:18:22
TRACK 08 AUDIO
TITLE "Your World Or Mine"
PERFORMER "Ben Jackson"
FLAGS DCP
INDEX 00 34:09:06
INDEX 01 34:09:23
TRACK 09 AUDIO
TITLE "Flesh & Blood"
PERFORMER "Ben Jackson"
FLAGS DCP
INDEX 00 37:52:40
INDEX 01 37:53:57
TRACK 10 AUDIO
TITLE "The Bomb"
PERFORMER "Ben Jackson"
FLAGS DCP
INDEX 00 42:07:66
INDEX 01 42:08:43
TRACK 11 AUDIO
TITLE "Whistle In The Wind"
PERFORMER "Ben Jackson"
FLAGS DCP
INDEX 00 45:56:22
INDEX 01 45:57:15

_________________


Top
 Profile E-mail  
 
 
PostPosted: 25 Dec 2016 
Хиппей (support team)
User avatar
Joined: 30 Jul 2007
Posts: 104642
Lоcаtion: Киев (Kyiv, UA)
Age: 45
Name: Andrey
Ben Jackson Group - 2005 - All Over You [192]

mirror: iFolder l Narod l M-Cloud


Ну вот, ведь умеет, когда хотит :dance:
Бодренький Heavy Metal почти без альтернативки и прочих гадостей :kro:

6/10

_________________


Top
 Profile E-mail  
 
Display posts from previous:  Sort by  
Post new topic Reply to topic  [ 9 posts ] 

All times are UTC + 3 hours


Who is online

Users browsing this forum: No registered users and 3 guests


You cannot post new topics in this forum
You cannot reply to topics in this forum
You cannot edit your posts in this forum
You cannot delete your posts in this forum
You cannot post attachments in this forum

Search for:
Яндекс.Метрика
Powered by phpBB © 2000, 2002, 2005, 2007 phpBB Group