\m/ 80's metal \m/

Информационно-аналитический форум "80 см пыли" (In Search We Trust) "У нас никто никуда не спешит"
Железнодорожная биржа - RailAgent
It is currently 16 Dec 2017

All times are UTC + 3 hours

Spoiler
Chat - temporary registration for foreign users (please leave your application here)







Post new topic Reply to topic  [ 27 posts ]  Go to page Previous  1, 2
Author Message
 
PostPosted: 22 Feb 2012 
адын фелософъ прокметолу
User avatar
Joined: 22 Oct 2009
Posts: 2600
Lоcаtion: Сочи
Age: 40
Name: Сергей
Случайно зашёл на их официальный сайт -послушал сэмплы - понравилось
в поиске первые 4 альбома группы
Bodragaz - Bodragaz 1996
Image
1. Is There A Chance 03:52
2. Strange Fascination 04:12
3. Masquerade 05:25
4. Once Upon A Time 04:44
5. God I 05:27
6. q 04:07
7. California Dreams 04:58
8. q 04:13
9. If Not For The Love 04:22
10. Fate Of The Winter 04:05
11. Forever And Ever 04:47
12. The Last Dance 08:51
Bodragaz - Somewhere In Switzerland 1997
Image
1. I Will Not Forget You
2. Peculiar People
3. She Smiled
4. Long Gone
5. You're The One
6. Eyes All Around
7. What A Wonder
8. While In The Garden
9. Feel The Sun
10. Will I Belong
Bodragaz - Epoch 1999
Image
1. Zero Warning
2. My Little Town
3. Summertime
4. If I'm Dreaming
5. Closer
6. Before Radio
7. Changes
8. In The Name Of
9. Elijah's Song
10. As I Remember
Bodragaz - Solid Sound 2002
Image
1. The Energy
2. Solid Sound
3. I Remember It All
4. Somewhere
5. God I
6. Reaching Out
7. The Last Dance
8. Send Me A Sign
9. When Gods Agree
10. Long After Dark
11. Sailing On

2 последних альбома у меня есть. Они представляют зрелую работу музыкантов и соответственно не так интересны.
Потому что я не любитель ничего зрелого в музыке

Познакомиться с группой можно здесь
http://www.reverbnation.com/bodragaz и на офсайте, который сделан не совсем по принятым стандартам
http://www.bodragaz.com/

На первом альбоме они играли отличный мелодик хард рок с элементами прогрессива

_________________
А теперь ... клоунов и стриптизёрш!


Last edited by wizard12 on 28 Jan 2015, edited 2 times in total.

Top
 Profile E-mail  
 
 
PostPosted: 26 Jan 2015 
Работнечег
User avatar
Joined: 28 Aug 2007
Posts: 5019
Lоcаtion: г. Москва
Age: 28
Name: Дима
:true:


Top
 Profile E-mail  
 
 
PostPosted: 28 Jan 2015 
адын фелософъ прокметолу
User avatar
Joined: 22 Oct 2009
Posts: 2600
Lоcаtion: Сочи
Age: 40
Name: Сергей
Bodragaz - Solid Sound 2002
Image
Label : Fox St. records
Tracks : 11
Playtime : 00:42:58
Size : 389 MB
Codec : WAV (image+cue+log)
Scans : имеются

Tracklist :
1. The Energy
2. Solid Sound
3. I Remember It All
4. Somewhere
5. God I
6. Reaching Out
7. The Last Dance
8. Send Me A Sign
9. When Gods Agree
10. Long After Dark
11. Sailing On

log
Exact Audio Copy V1.0 beta 3 from 29. August 2011

Отчёт EAC об извлечении, выполненном 28. января 2015, 18:12

Bodragaz / Solid Sound

Дисковод: Optiarc DVD RW AD-7241S Adapter: 0 ID: 0

Режим чтения : Достоверность
Использование точного потока : Да
Отключение кэша аудио : Да
Использование указателей C2 : Нет

Коррекция смещения при чтении : 48
Способность читать области Lead-in и Lead-out : Нет
Заполнение пропущенных сэмплов тишиной : Да
Удаление блоков с тишиной в начале и конце : Нет
При вычислениях CRC использовались нулевые сэмплы : Да
Интерфейс : Встроенный Win32-интерфейс для Win NT/2000

Выходной формат : Внутренние WAV-операции
Формат сэмплов : 44.100 Гц; 16 бит; стерео


TOC извлечённого CD

Трек | Старт | Длительность | Начальный сектор | Конечный сектор
---------------------------------------------------------------------
1 | 0:00.00 | 3:04.41 | 0 | 13840
2 | 3:04.41 | 3:04.53 | 13841 | 27693
3 | 6:09.19 | 3:18.56 | 27694 | 42599
4 | 9:28.00 | 4:49.00 | 42600 | 64274
5 | 14:17.00 | 5:29.23 | 64275 | 88972
6 | 19:46.23 | 3:37.26 | 88973 | 105273
7 | 23:23.49 | 4:49.58 | 105274 | 127006
8 | 28:13.32 | 4:23.03 | 127007 | 146734
9 | 32:36.35 | 3:49.38 | 146735 | 163947
10 | 36:25.73 | 6:32.39 | 163948 | 193386
11 | 42:58.37 | 4:24.04 | 193387 | 213190


Характеристики диапазона извлечения и сообщения об ошибках

Выбранный диапазон

Имя файла C:\Users\Sergey\Downloads\Архивы\Bodragaz - Solid Sound.wav

Пиковый уровень 100.0 %
Скорость извлечения 3.9 X
Качество диапазона 99.9 %
CRC копии 1C1B8D3B
Копирование... OK

Ошибок не произошло

Конец отчёта

cue
REM GENRE "Progressive Rock"
REM DATE 2002
REM DISCID A70B1A0B
REM COMMENT "ExactAudioCopy v1.0b3"
PERFORMER "Bodragaz"
TITLE "Solid Sound"
FILE "Bodragaz - Solid Sound.wav" WAVE
TRACK 01 AUDIO
TITLE "The Energy"
PERFORMER "Bodragaz"
INDEX 01 00:00:00
TRACK 02 AUDIO
TITLE "Solid Sound"
PERFORMER "Bodragaz"
INDEX 01 03:04:41
TRACK 03 AUDIO
TITLE "I Remember it All"
PERFORMER "Bodragaz"
INDEX 01 06:09:19
TRACK 04 AUDIO
TITLE "Somewhere "
PERFORMER "Bodragaz"
INDEX 01 09:28:00
TRACK 05 AUDIO
TITLE "God I"
PERFORMER "Bodragaz"
INDEX 01 14:17:00
TRACK 06 AUDIO
TITLE "Reaching Out"
PERFORMER "Bodragaz"
INDEX 01 19:46:23
TRACK 07 AUDIO
TITLE "The Last Dance"
PERFORMER "Bodragaz"
INDEX 01 23:23:49
TRACK 08 AUDIO
TITLE "Send Me a Sign"
PERFORMER "Bodragaz"
INDEX 01 28:13:32
TRACK 09 AUDIO
TITLE "When Gods Agree"
PERFORMER "Bodragaz"
INDEX 01 32:36:35
TRACK 10 AUDIO
TITLE "Long After Dark"
PERFORMER "Bodragaz"
INDEX 01 36:25:73
TRACK 11 AUDIO
TITLE "Sailing On"
PERFORMER "Bodragaz"
INDEX 01 42:58:37


Просьба отзеркалить а то у меня мало место на майловом облаке - файл будет через некоторое время

_________________
А теперь ... клоунов и стриптизёрш!


Top
 Profile E-mail  
 
 
PostPosted: 28 Jan 2015 
спирт 100%
User avatar
Joined: 22 Sep 2008
Posts: 4130
Age: 46
Name: Саня
Серёга, :thanx: Спасибо !


Top
 Profile  
 
 
PostPosted: 28 Jan 2015 
адын фелософъ прокметолу
User avatar
Joined: 22 Oct 2009
Posts: 2600
Lоcаtion: Сочи
Age: 40
Name: Сергей
добавлен и мп3
этот альбом гораздо лучше предыдущего. Налёт альтернативы и прочего неформата в этом творении постепенно смывается

_________________
А теперь ... клоунов и стриптизёрш!


Top
 Profile E-mail  
 
 
PostPosted: 28 Jan 2015 
Прокъмитолист
User avatar
Joined: 12 Aug 2007
Posts: 6256
Lоcаtion: Санктъ-Петербуркъ
Age: 50
Name: Олекъ
и еще раз спасибо :thanx:

_________________
прокъметол - это музыко, от которово есть прок (ы)


Top
 Profile  
 
 
PostPosted: 28 Jan 2015 
Я набрал 1000 сообщений!
Joined: 24 Oct 2009
Posts: 1784
Lоcаtion: Оренбург
Age: 54
Name: Юра
Спасибо! :thanx:

_________________
:dash: I am happy!


Top
 Profile E-mail  
 
 
PostPosted: 29 Jan 2015 
Труъ
User avatar
Joined: 25 Aug 2009
Posts: 152
Lоcаtion: Москва
Name: Павел
Зеркала на русфолдере:

лослес - http://rusfolder.com/42853613
мп3 - http://rusfolder.com/42853621


Top
 Profile E-mail  
 
Display posts from previous:  Sort by  
Post new topic Reply to topic  [ 27 posts ]  Go to page Previous  1, 2

All times are UTC + 3 hours


Who is online

Users browsing this forum: No registered users and 1 guest


You cannot post new topics in this forum
You cannot reply to topics in this forum
You cannot edit your posts in this forum
You cannot delete your posts in this forum
You cannot post attachments in this forum

Search for:
Яндекс.Метрика
cron
Powered by phpBB © 2000, 2002, 2005, 2007 phpBB Group