\m/ 80's metal \m/

Информационно-аналитический форум "80 см пыли" (In Search We Trust) "У нас никто никуда не спешит"
Железнодорожная биржа - RailAgent
It is currently 29 Jun 2017

All times are UTC + 3 hours

Spoiler
Chat - temporary registration for foreign users (please leave your application here)







Post new topic Reply to topic  [ 93 posts ]  Go to page Previous  1, 2, 3, 4, 5  Next
Author Message
 
PostPosted: 25 Jan 2016 
Анатолий
User avatar
Joined: 18 Oct 2008
Posts: 2633
Lоcаtion: Армавир
Age: 40
Name: Анатолий
Scatterbrain wrote:
Так понял, ты себя причисляешь в глорихантерам Рольфа? Об этом речь? =)


Не важно к кому я себя причисляю... важно что я там. ;-)

Scatterbrain wrote:
Угу аналогично отношусь к музыке. но... тебя вот с твоими вкусами очень редко могу понять =)


Оно и к лучшему, будет о чём поговорить. ;-)

Scatterbrain wrote:
Атомгод именно второй альбом?


Именно что. :-)

boojum wrote:
а кого вы вообще причисляете к иным? в свое время считал "иными" Anacrusis, а потом оказалось, что оно почти всем нравится )


Я хотел ещё парой постов выше указать примерные ориентиры... теперь вот придётся:

Manilla Road, Cirith Ungol, Brokas Helm, Witchfinder General
Xyster, Anvil, Raven, Atomgod, VoiVod

Как-то так вот на вскидку.


Last edited by Privateer on 31 Jan 2016, edited 1 time in total.

Top
 Profile E-mail  
 
 
PostPosted: 25 Jan 2016 
Я набрал 1000 сообщений!
Joined: 09 Jul 2008
Posts: 1299
Age: 43
Name: Сергей
Quote:
Manilla Road, Cirith Ungol, Brokas Helm, Witchfinder General
Xuster, Anvil, Raven, Atomgod, VoiVod

ох, ну и каша )

а вышеупомянутые канадцы и сейчас неплохо "оригинальничают" (на мой взгляд, просто отлично)
Valkyrie's Cry - Ride of Sleipnir

Villainizer - Welcome To Arabland + A.L.I.S. In Arabland


Top
 Profile  
 
 
PostPosted: 25 Jan 2016 
Хиппей (support team)
User avatar
Joined: 30 Jul 2007
Posts: 91258
Lоcаtion: Киев (Kyiv, UA)
Age: 44
Name: Andrey
Privateer wrote:
Не важно к кому я себя причисляю... важно что я там. ;-)

Ббрр, тогда ваще про палату не понял я ничо :lloo:
Privateer wrote:
Оно и к лучшему, будет о чём поговорить. ;-)

Ну, я ж живу по пословице "свинья болото найдёт", так что мне всегда есть с кем о чём поговорить :kro:
Но вот твоё некоторое скромное молчание всё чаще вынуждает молчать в ответ и меня :pardon:

_________________


Top
 Profile E-mail  
 
 
PostPosted: 25 Jan 2016 
Анатолий
User avatar
Joined: 18 Oct 2008
Posts: 2633
Lоcаtion: Армавир
Age: 40
Name: Анатолий
boojum wrote:
ох, ну и каша )


Вот такая она... моя каша. :) Просто взял из головы то что чаще всего слушаю. Хотя список конечно более обширный.

Так сложилось... или не сложилось... меня современное искусство мало трогает... А так... рубят конечно знатно. Но это же не Anvil! ;) :) И даже не Soothsayer.



Спасибо за Atomgod! :thanx: :true:


Top
 Profile E-mail  
 
 
PostPosted: 25 Jan 2016 
Анатолий
User avatar
Joined: 18 Oct 2008
Posts: 2633
Lоcаtion: Армавир
Age: 40
Name: Анатолий
Scatterbrain wrote:
Ббрр, тогда ваще про палату не понял я ничо


Не беда... и тебя вылечат! (с)

Scatterbrain wrote:
Но вот твоё некоторое скромное молчание всё чаще вынуждает молчать в ответ и меня


Это мудрость приходит. ;) :pardon:


Top
 Profile E-mail  
 
 
PostPosted: 25 Jan 2016 
Я набрал 1000 сообщений!
Joined: 09 Jul 2008
Posts: 1299
Age: 43
Name: Сергей
чистое техно никогда не любил, разве что меконг дельту
манилла роад а ля 83-87 обожаю (хотя просто на удивление порадовал блессед кёрс), брокас хелм 2004 (ранние - ну их наф), остальное никогда не относилось мной к чему-то особенному
точно так же никогда не зацикливался на прототипах... понятно, что ПРИДУМАТЬ стиль многого стоит, но вот большинство старичков в новичках вполне себе теряются


Top
 Profile  
 
 
PostPosted: 26 Jan 2016 
Хиппей (support team)
User avatar
Joined: 30 Jul 2007
Posts: 91258
Lоcаtion: Киев (Kyiv, UA)
Age: 44
Name: Andrey
Privateer wrote:
Это мудрость приходит. ;) :pardon:

Не, это нежелание тратить время на остывший (и застывший) персонаж :(
boojum wrote:
брокас хелм 2004 (ранние - ну их наф)

Ага, и меня 04-й порвал дичайше. В такое то время записать такой-то мега-альбом :lob: :lob: :lob:
Privateer wrote:
Не беда... и тебя вылечат! (с)
Only after death :pardon:

_________________


Top
 Profile E-mail  
 
 
PostPosted: 26 Jan 2016 
Анатолий
User avatar
Joined: 18 Oct 2008
Posts: 2633
Lоcаtion: Армавир
Age: 40
Name: Анатолий
boojum wrote:
чистое техно никогда не любил, разве что меконг дельту


Оно бывает разным. Слушаю. :smile: Но техно ради техно меня совсем не устраивает. Должно быть ещё что-то... что цепляло бы.

boojum wrote:
остальное никогда не относилось мной к чему-то особенному


Тут дело не в глобальной особенности, масштабов мирового уровня, а просто в каких-то своих музыкальных фишках, взглядах и почерке не совсем умещающихся в рамки обычного, традиционно прочтения metal.

boojum wrote:
точно так же никогда не зацикливался на прототипах... понятно, что ПРИДУМАТЬ стиль многого стоит, но вот большинство старичков в новичках вполне себе теряются


Cпорить не имеет смысла... я от себя не жду того, что когда-то в 18 лет мог сделать... просто слушаю старые альбомы. :smile:

А так... вот старички записали просто шикарную композицию:



Top
 Profile E-mail  
 
 
PostPosted: 26 Jan 2016 
Анатолий
User avatar
Joined: 18 Oct 2008
Posts: 2633
Lоcаtion: Армавир
Age: 40
Name: Анатолий
Scatterbrain wrote:
Не, это нежелание тратить время на остывший (и застывший) персонаж


Я не обидчевый. А тут много и других персонажей... не застывших. :smile:


Top
 Profile E-mail  
 
 
PostPosted: 26 Jan 2016 
А может смените мне статус?..
User avatar
Joined: 17 Jan 2008
Posts: 806
Lоcаtion: Пенза
Age: 39
Name: Денис
ловите http://ifolder.com.ua/ganuvzd9h3g1.html

ЗЫ хз с какого бодуна я обозвал это сидиэркой - обычный фирменный сиди


Перезалейте пожалуйста кто-нибудь на нормальный файлообменик,на этот антивирус не пускает((


Top
 Profile  
 
 
PostPosted: 26 Jan 2016 
Хиппей (support team)
User avatar
Joined: 30 Jul 2007
Posts: 91258
Lоcаtion: Киев (Kyiv, UA)
Age: 44
Name: Andrey
Scatterbrain wrote:
Не, это нежелание тратить время на остывший (и застывший) персонаж


Я не обидчевый. А тут много и других персонажей... не застывших. :smile:

Толя, прости меня. Шото я погорячился. Вижу, ты снова прежний Анатолик :kro: :kamrad:

Постоянно забываю о твоей рассудительности, прежде чем что-либо отвечать, ты сто раз подумаешь :thanx:

_________________


Top
 Profile E-mail  
 
 
PostPosted: 26 Jan 2016 
Хиппей (support team)
User avatar
Joined: 30 Jul 2007
Posts: 91258
Lоcаtion: Киев (Kyiv, UA)
Age: 44
Name: Andrey
ловите http://ifolder.com.ua/ganuvzd9h3g1.html

ЗЫ хз с какого бодуна я обозвал это сидиэркой - обычный фирменный сиди


Перезалейте пожалуйста кто-нибудь на нормальный файлообменик,на этот антивирус не пускает((

Ща буит. Я вчера три раза качал :crazy:

_________________


Top
 Profile E-mail  
 
 
PostPosted: 26 Jan 2016 
Хиппей (support team)
User avatar
Joined: 30 Jul 2007
Posts: 91258
Lоcаtion: Киев (Kyiv, UA)
Age: 44
Name: Andrey
Privateer wrote:
А так... вот старички записали просто шикарную композицию:

Хорошая вещь. Но если весь альбом такой, то.... как же его можно слушать? :scratch:

Забираю композицию в другую тему =) :thanx:

зы. Ага, она там уже есть давно...

_________________


Top
 Profile E-mail  
 
 
PostPosted: 26 Jan 2016 
Хиппей (support team)
User avatar
Joined: 30 Jul 2007
Posts: 91258
Lоcаtion: Киев (Kyiv, UA)
Age: 44
Name: Andrey
ловите http://ifolder.com.ua/ganuvzd9h3g1.html

ЗЫ хз с какого бодуна я обозвал это сидиэркой - обычный фирменный сиди

:thanx:

AtomGod - 1991 - History Re-Written [flac]

mirror: iFolder l Narod l M-Cloud

log
Exact Audio Copy V1.0 beta 6 from 9. April 2015

EAC extraction logfile from 25. January 2016, 19:27

Atom God / History Re-Written

Used drive : PIONEER DVD-RW DVR-219L Adapter: 1 ID: 0

Read mode : Secure
Utilize accurate stream : Yes
Defeat audio cache : Yes
Make use of C2 pointers : No

Read offset correction : 6
Overread into Lead-In and Lead-Out : No
Fill up missing offset samples with silence : Yes
Delete leading and trailing silent blocks : No
Null samples used in CRC calculations : Yes
Used interface : Native Win32 interface for Win NT & 2000

Used output format : Internal WAV Routines
Sample format : 44.100 Hz; 16 Bit; Stereo


TOC of the extracted CD

Track | Start | Length | Start sector | End sector
---------------------------------------------------------
1 | 0:00.00 | 2:05.42 | 0 | 9416
2 | 2:05.42 | 5:10.60 | 9417 | 32726
3 | 7:16.27 | 1:13.00 | 32727 | 38201
4 | 8:29.27 | 4:43.43 | 38202 | 59469
5 | 13:12.70 | 7:29.37 | 59470 | 93181
6 | 20:42.32 | 10:37.48 | 93182 | 141004
7 | 31:20.05 | 2:30.07 | 141005 | 152261
8 | 33:50.12 | 8:59.23 | 152262 | 192709
9 | 42:49.35 | 8:19.45 | 192710 | 230179


Range status and errors

Selected range

Filename D:\Music\my rips\Atom God - History Re-Written.wav

Peak level 100.0 %
Extraction speed 7.1 X
Range quality 100.0 %
Copy CRC 10E79561
Copy OK

No errors occurred


AccurateRip summary

Track 1 accurately ripped (confidence 2) [B1A70675] (AR v2)
Track 2 accurately ripped (confidence 2) [1FBCD8C8] (AR v2)
Track 3 accurately ripped (confidence 2) [A080B899] (AR v2)
Track 4 accurately ripped (confidence 2) [4ADB1DDB] (AR v2)
Track 5 accurately ripped (confidence 2) [373C59B4] (AR v2)
Track 6 accurately ripped (confidence 2) [FBA5AAFD] (AR v2)
Track 7 accurately ripped (confidence 2) [F386EBE3] (AR v2)
Track 8 accurately ripped (confidence 2) [4C52D977] (AR v2)
Track 9 accurately ripped (confidence 2) [F885DDC4] (AR v2)

All tracks accurately ripped

End of status report

---- CUETools DB Plugin V2.1.6

[CTDB TOCID: b5U9xh2F5qp6uAezMjOQD21G02M-] disk not present in database
Submit result: b5U9xh2F5qp6uAezMjOQD21G02M- has been uploaded


------------------------------------------------------------

Exact Audio Copy V1.0 beta 6 from 9. April 2015

EAC extraction logfile from 25. January 2016, 19:28

Atom God / History Re-Written

Used drive : PIONEER DVD-RW DVR-219L Adapter: 1 ID: 0

Read mode : Secure
Utilize accurate stream : Yes
Defeat audio cache : Yes
Make use of C2 pointers : No

Read offset correction : 6
Overread into Lead-In and Lead-Out : No
Fill up missing offset samples with silence : Yes
Delete leading and trailing silent blocks : No
Null samples used in CRC calculations : Yes
Used interface : Native Win32 interface for Win NT & 2000

Used output format : Internal WAV Routines
Sample format : 44.100 Hz; 16 Bit; Stereo


TOC of the extracted CD

Track | Start | Length | Start sector | End sector
---------------------------------------------------------
1 | 0:00.00 | 2:05.42 | 0 | 9416
2 | 2:05.42 | 5:10.60 | 9417 | 32726
3 | 7:16.27 | 1:13.00 | 32727 | 38201
4 | 8:29.27 | 4:43.43 | 38202 | 59469
5 | 13:12.70 | 7:29.37 | 59470 | 93181
6 | 20:42.32 | 10:37.48 | 93182 | 141004
7 | 31:20.05 | 2:30.07 | 141005 | 152261
8 | 33:50.12 | 8:59.23 | 152262 | 192709
9 | 42:49.35 | 8:19.45 | 192710 | 230179


Range status and errors

Selected range

Filename D:\Music\my rips\Atom God - History Re-Written.wav

Peak level 100.0 %
Extraction speed 7.1 X
Range quality 100.0 %
Copy CRC 10E79561
Copy OK

No errors occurred


AccurateRip summary

Track 1 accurately ripped (confidence 2) [B1A70675] (AR v2)
Track 2 accurately ripped (confidence 2) [1FBCD8C8] (AR v2)
Track 3 accurately ripped (confidence 2) [A080B899] (AR v2)
Track 4 accurately ripped (confidence 2) [4ADB1DDB] (AR v2)
Track 5 accurately ripped (confidence 2) [373C59B4] (AR v2)
Track 6 accurately ripped (confidence 2) [FBA5AAFD] (AR v2)
Track 7 accurately ripped (confidence 2) [F386EBE3] (AR v2)
Track 8 accurately ripped (confidence 2) [4C52D977] (AR v2)
Track 9 accurately ripped (confidence 2) [F885DDC4] (AR v2)

All tracks accurately ripped

End of status report

---- CUETools DB Plugin V2.1.6

[CTDB TOCID: b5U9xh2F5qp6uAezMjOQD21G02M-] disk not present in database
Submit result: b5U9xh2F5qp6uAezMjOQD21G02M- has been uploaded

cue
REM DATE 1991
REM DISCID 6A0BFD09
REM COMMENT "ExactAudioCopy v1.0b6"
PERFORMER "Atom God"
TITLE "History Re-Written"
FILE "Atom God - History Re-Written.wav" WAVE
TRACK 01 AUDIO
TITLE "History Re-Written Part 1"
PERFORMER "Atom God"
INDEX 01 00:00:00
TRACK 02 AUDIO
TITLE "Welcome to the Kingdom of Doom"
PERFORMER "Atom God"
INDEX 01 02:05:42
TRACK 03 AUDIO
TITLE "History Re-Written Part 2"
PERFORMER "Atom God"
INDEX 01 07:16:27
TRACK 04 AUDIO
TITLE "Radio Death"
PERFORMER "Atom God"
INDEX 00 08:29:02
INDEX 01 08:29:27
TRACK 05 AUDIO
TITLE "Atom Bomb"
PERFORMER "Atom God"
INDEX 00 13:12:15
INDEX 01 13:12:70
TRACK 06 AUDIO
TITLE "Cesspit (Cauldron of Death)"
PERFORMER "Atom God"
INDEX 00 20:40:37
INDEX 01 20:42:32
TRACK 07 AUDIO
TITLE "Virgin Blood"
PERFORMER "Atom God"
INDEX 01 31:20:05
TRACK 08 AUDIO
TITLE "(Death Will Come From) China"
PERFORMER "Atom God"
INDEX 00 33:47:70
INDEX 01 33:50:12
TRACK 09 AUDIO
TITLE "Rot in Burning Hell"
PERFORMER "Atom God"
INDEX 00 42:47:32
INDEX 01 42:49:35

_________________


Top
 Profile E-mail  
 
 
PostPosted: 26 Jan 2016 
Генеральный thrasher
User avatar
Joined: 03 Oct 2008
Posts: 3050
Lоcаtion: Ханты-Мансийский АО
Age: 42
Name: Сергей
Вообще не знаю таких,но возьму...возьму!Вдруг хорошая банда... :benya:


Top
 Profile  
 
 
PostPosted: 26 Jan 2016 
Прокъмитолист
User avatar
Joined: 12 Aug 2007
Posts: 6014
Lоcаtion: Санктъ-Петербуркъ
Age: 49
Name: Олекъ
:thanx:

_________________
прокъметол - это музыко, от которово есть прок (ы)


Top
 Profile  
 
 
PostPosted: 26 Jan 2016 
Анатолий
User avatar
Joined: 18 Oct 2008
Posts: 2633
Lоcаtion: Армавир
Age: 40
Name: Анатолий
Scatterbrain wrote:
Толя, прости меня. Шото я погорячился. Вижу, ты снова прежний Анатолик


Не ма за шо. ;) А за Анатолика - спасибо. :thanx:

Scatterbrain wrote:
Постоянно забываю о твоей рассудительности, прежде чем что-либо отвечать, ты сто раз подумаешь


Так воспитан... :pardon:

Scatterbrain wrote:
Хорошая вещь. Но если весь альбом такой, то.... как же его можно слушать?


Вполне себе хорошо его можно слушать. Просто настроение должно быть подходящим.

thorbeorn wrote:
Вообще не знаю таких,но возьму...возьму!Вдруг хорошая банда...


Серёж, не думаю что тебе это понравится... специфическая группа...


Top
 Profile E-mail  
 
 
PostPosted: 26 Jan 2016 
Хиппей (support team)
User avatar
Joined: 30 Jul 2007
Posts: 91258
Lоcаtion: Киев (Kyiv, UA)
Age: 44
Name: Andrey
Вообще не знаю таких,но возьму...возьму!Вдруг хорошая банда... :benya:

Сумлеваюсь, что этот альбом понравится :pardon:

_________________


Top
 Profile E-mail  
 
 
PostPosted: 26 Jan 2016 
Хиппей (support team)
User avatar
Joined: 30 Jul 2007
Posts: 91258
Lоcаtion: Киев (Kyiv, UA)
Age: 44
Name: Andrey
Privateer wrote:
Так воспитан... :pardon:

Ага. Но иногда оно ой как тебе же самому во вред :fingal:
Privateer wrote:
Вполне себе хорошо его можно слушать. Просто настроение должно быть подходящим.

Кхм, ну, разве что в такие моменты, когда ну вообще больше нечего слушать :crazy:

_________________


Top
 Profile E-mail  
 
 
PostPosted: 31 Jan 2016 
Я набрал 1000 сообщений!
Joined: 18 Aug 2007
Posts: 1686
Lоcаtion: Владивосток
Age: 42
Name: Николай Николаевич
спасибо за альбом! А чего такое Xuster, чет нема у меня такой....


Top
 Profile  
 
Display posts from previous:  Sort by  
Post new topic Reply to topic  [ 93 posts ]  Go to page Previous  1, 2, 3, 4, 5  Next

All times are UTC + 3 hours


Who is online

Users browsing this forum: No registered users and 1 guest


You cannot post new topics in this forum
You cannot reply to topics in this forum
You cannot edit your posts in this forum
You cannot delete your posts in this forum
You cannot post attachments in this forum

Search for:
Яндекс.Метрика
Powered by phpBB © 2000, 2002, 2005, 2007 phpBB Group