\m/ 80's metal \m/

Информационно-аналитический форум "80 см пыли" (In Search We Trust) "У нас никто никуда не спешит"
Me For You - http://me-4u.com
It is currently 19 Sep 2018

All times are UTC + 3 hours

Spoiler
Chat - temporary registration for foreign users (please leave your application here)





Forum rules


Уважаемые пользователи ресурса, друзья, коллеги и гости нашего форума. Данный раздел конференции создан с целью рафинации, и посвящён такому стилевому направлению в музыке, как Thrash Metal во всех его проявлениях и ипостасях, а иногда и переходящему на пограничные стили Speed, Power, Groove, Crossover, MDM и т.п.
Главное правило здесь одно: Одна группа – одна тема! Всё остальное созвучно основным нормам поведения на конференции.
Шаблон оформления тем в этом подфоруме должен быть основан на данных сайта www.metal-archives.com и выглядеть следующим образом:

Группа (Страна) - Стилевые рамки - дискография
Slayer (USA) - Thrash Metal - дискография


В теме допустимо размещение всей информации касающейся данного коллектива: анонсы любых альбомов в любых форматах, запросы любых релизов коллектива (кроме релизов текущего и прошлого годов), обсуждения, обзоры, а в остальном всё как обычно. Уважаем друг друга, не грубим, соблюдаем нормы поведения на конференции, оформляем анонсы и запросы красиво и информативно, что бы модераторы не посчитали их троллингом, и не отправили куда положено, выписав Вам предупреждение или ещё что похуже… Прежде чем что-то запросить или запостить, пользуемся поиском! Пользуемся поиском! ПОЛЬЗУЕМСЯ ПОИСКОМ!!! Так слышно меня?.. :pardon:
Интересного, конструктивного и креативного общения! ;)



Post new topic Reply to topic  [ 93 posts ]  Go to page Previous  1, 2, 3, 4, 5  Next
Author Message
 
PostPosted: 12 Mar 2009 
Персональный статус
User avatar
Joined: 29 Jan 2009
Posts: 265
Lоcаtion: Таллин, Эстония.
Age: 31
Name: Роман Юрич
Получилось, забыл выложить.

_________________
Death The Ultimate Reality
Death The Ultimate Reason To Live


Top
 Profile  
 
 
PostPosted: 17 Mar 2009 
Персональный статус
User avatar
Joined: 29 Jan 2009
Posts: 265
Lоcаtion: Таллин, Эстония.
Age: 31
Name: Роман Юрич
Ловите
Rapid
or
iFolder

_________________
Death The Ultimate Reality
Death The Ultimate Reason To Live


Top
 Profile  
 
 
PostPosted: 17 Mar 2009 
Работнечег
User avatar
Joined: 28 Aug 2007
Posts: 5409
Lоcаtion: г. Москва
Age: 29
Name: Дима
Спасибо! :dance:


Top
 Profile E-mail  
 
 
PostPosted: 17 Mar 2009 
"ну типа, хэви-метал это круто и все такое..." ©
User avatar
Joined: 31 Aug 2008
Posts: 902
Lоcаtion: Запорожье
Name: Саня
MetalMilitia
Спасибо большое!
скорее за труды ,чем за сам рип.Так как это какой-то у****нский перекод из тех же 160 гуляющих по сети :shok:
Думаю правильно было бы удалить эту ссылку из темы (дабы не вводить в заблуждение ), и продолжить поиск нормального рипа.


Top
 Profile  
 
 
PostPosted: 18 Mar 2009 
"ну типа, хэви-метал это круто и все такое..." ©
User avatar
Joined: 31 Aug 2008
Posts: 902
Lоcаtion: Запорожье
Name: Саня
Добавил в первый пост скан видеорелиза "The Blast Of Video" .


Top
 Profile  
 
 
PostPosted: 19 Mar 2009 
Хиппей (support team)
User avatar
Joined: 30 Jul 2007
Posts: 106323
Lоcаtion: Киев (Kyiv, UA)
Age: 45
Name: Andrey
Yyz wrote:
перекод из тех же 160 гуляющих по сети

Мдя, а лося то и нету... :fingal:


Top
 Profile E-mail  
 
 
PostPosted: 19 Mar 2009 
"ну типа, хэви-метал это круто и все такое..." ©
User avatar
Joined: 31 Aug 2008
Posts: 902
Lоcаtion: Запорожье
Name: Саня
Scatterbrain wrote:
Мдя, а лося то и нету...

так вроде и не на лося охота,а на нормальные 192-320


Top
 Profile  
 
 
PostPosted: 20 Mar 2009 
Хиппей (support team)
User avatar
Joined: 30 Jul 2007
Posts: 106323
Lоcаtion: Киев (Kyiv, UA)
Age: 45
Name: Andrey
Ну дак и нормальных я не встречал, только те же 160 кб :pardon:


Top
 Profile E-mail  
 
 
PostPosted: 27 Sep 2009 
хард н хэвщик (support team)
User avatar
Joined: 02 Jun 2008
Posts: 16880
Lоcаtion: Н.Новгород
Age: 31
Name: Артем
Yyz wrote:
Думаю правильно было бы удалить эту ссылку из темы (дабы не вводить в заблуждение )

ссылочки сами собой похерились. :umnik:
Сань, камие альбомы продолжаем искать? все?


Top
 Profile  
 
 
PostPosted: 29 Sep 2009 
"ну типа, хэви-метал это круто и все такое..." ©
User avatar
Joined: 31 Aug 2008
Posts: 902
Lоcаtion: Запорожье
Name: Саня
McKagan
На первый могу ссылку обновить ( рип с переиздания 256 kb\s), а остальное в поиске :
"Limits of Insanity"-89 и "The Blast Of Video"-2002


Top
 Profile  
 
 
PostPosted: 29 Sep 2009 
хард н хэвщик (support team)
User avatar
Joined: 02 Jun 2008
Posts: 16880
Lоcаtion: Н.Новгород
Age: 31
Name: Артем
Yyz wrote:
На первый могу ссылку обновить ( рип с переиздания 256 kb\s), а остальное в поиске :

Да не, мне не надо :pardon: это я порядок навожу здесь :umnik:


Top
 Profile  
 
 
PostPosted: 03 Mar 2010 
"ну типа, хэви-метал это круто и все такое..." ©
User avatar
Joined: 31 Aug 2008
Posts: 902
Lоcаtion: Запорожье
Name: Саня
Yyz wrote:
"The Blast Of Video"-2002
...может попадалось кому-то :oops: Заранее спасибо :thanx:

Все еще ищется...


Top
 Profile  
 
 
PostPosted: 17 Jul 2010 
Генеральный thrasher
User avatar
Joined: 03 Oct 2008
Posts: 3445
Lоcаtion: Ханты-Мансийский АО
Age: 43
Name: Сергей
Image

Year:1987 (2006 Remastered)
Style:Thrash Metal
Country:Brasil
Audio:Flac+Cue+Log
Size:499Mb
Label:Kill Again Records

Line-Up:
Laerte Perr - Vocals
Joгo Paulo Francis - Guitar
Pyda Rod - Guitar
Andre Rod - Bass
Mario Sanefuji - Drums

Tracklist:
1. Dying Smashed 05:13
2. Marching Over Blood 06:31
3. Lost Time 06:40
4. No Life Till Madness 05:10
5. Children’s Assassins 05:08
6. Flesh Maniac 04:13
7. Samurai 04:05
Bonus Tracks:
8.In Hell We Live
9.Under Pressure
10.Dying Mission
11.Step Mother Nature

Cue
REM GENRE "Heavy Metal"
REM DATE 1987
REM DISCID 9F0DC70B
REM COMMENT "ExactAudioCopy v0.99pb4"
PERFORMER "ATTOMICA"
TITLE "Attomica"
FILE "ATTOMICA - Attomica.flac" WAVE
TRACK 01 AUDIO
TITLE "Dying Smashed"
PERFORMER "ATTOMICA"
INDEX 01 00:00:00
TRACK 02 AUDIO
TITLE "Marching Over Blood"
PERFORMER "ATTOMICA"
INDEX 00 05:25:42
INDEX 01 05:27:41
TRACK 03 AUDIO
TITLE "Lost Time"
PERFORMER "ATTOMICA"
INDEX 00 12:14:41
INDEX 01 12:16:41
TRACK 04 AUDIO
TITLE "No Life 'Till Madness"
PERFORMER "ATTOMICA"
INDEX 00 19:12:18
INDEX 01 19:14:18
TRACK 05 AUDIO
TITLE "Children Assassins"
PERFORMER "ATTOMICA"
INDEX 00 24:24:26
INDEX 01 24:26:26
TRACK 06 AUDIO
TITLE "Flesh Maniac"
PERFORMER "ATTOMICA"
INDEX 00 29:45:68
INDEX 01 29:47:68
TRACK 07 AUDIO
TITLE "Samurai"
PERFORMER "ATTOMICA"
INDEX 00 34:14:47
INDEX 01 34:16:47
TRACK 08 AUDIO
TITLE "In Hell We Live (2005)"
PERFORMER "ATTOMICA"
INDEX 00 38:30:52
INDEX 01 38:32:52
TRACK 09 AUDIO
TITLE "Under Pressure (2005)"
PERFORMER "ATTOMICA"
INDEX 00 42:36:53
INDEX 01 42:38:53
TRACK 10 AUDIO
TITLE "Dying Mission (2005)"
PERFORMER "ATTOMICA"
INDEX 00 48:32:50
INDEX 01 48:34:50
TRACK 11 AUDIO
TITLE "Step Mother Nature (2005)"
PERFORMER "ATTOMICA"
INDEX 00 53:41:42
INDEX 01 53:43:41

Log
Exact Audio Copy V0.99 prebeta 4 from 23. January 2008

Отчёт EAC об извлечении, выполненном 17. июля 2010, 9:32

ATTOMICA / Attomica

Дисковод: TSSTcorpCDDVDW SH-S202N Adapter: 0 ID: 1

Режим чтения : Достоверность
Использование точного потока : Да
Отключение кэша аудио : Да
Использование указателей C2 : Нет

Коррекция смещения при чтении : 6
Способность читать области Lead-in и Lead-out : Нет
Заполнение пропущенных сэмплов тишиной : Да
Удаление блоков с тишиной в начале и конце : Нет
При вычислениях CRC использовались нулевые сэмплы : Нет
Интерфейс : Установленный внешний ASPI-интерфейс

Выходной формат : Пользовательский кодировщик
Выбранный битрейт : 768 kBit/s
Качество : Высокий
Добавление ID3-тэга : Нет
Утилита сжатия : C:\Program Files\Exact Audio Copy\FLAC\FLAC.EXE
Дополнительные параметры : -6 -V -T "ARTIST=%a" -T "TITLE=%t" -T "ALBUM=%g" -T "DATE=%y" -T "TRACKNUMBER=%n" -T "GENRE=%m" -T "COMMENT=%e" %s -o %d


TOC извлечённого CD

Трек | Старт | Длительность | Начальный сектор | Конечный сектор
---------------------------------------------------------------------
1 | 0:00.00 | 5:27.41 | 0 | 24565
2 | 5:27.41 | 6:49.00 | 24566 | 55240
3 | 12:16.41 | 6:57.52 | 55241 | 86567
4 | 19:14.18 | 5:12.08 | 86568 | 109975
5 | 24:26.26 | 5:21.42 | 109976 | 134092
6 | 29:47.68 | 4:28.54 | 134093 | 154246
7 | 34:16.47 | 4:16.05 | 154247 | 173451
8 | 38:32.52 | 4:06.01 | 173452 | 191902
9 | 42:38.53 | 5:55.72 | 191903 | 218599
10 | 48:34.50 | 5:08.66 | 218600 | 241765
11 | 53:43.41 | 5:04.24 | 241766 | 264589


Характеристики диапазона извлечения и сообщения об ошибках

Выбранный диапазон

Имя файла F:\Лоси\A\ATTOMICA - Attomica.wav

Пиковый уровень 100.0 %
Качество диапазона 99.9 %
CRC копии FA0EDA2A
Копирование... OK

Ошибок не произошло


AccurateRip: сводка

Трек 1 точность не определена (достоверность 1) [C56C7B94], AccurateRip вернул [2871DF4B]
Трек 2 точность не определена (достоверность 1) [1CCA1F37], AccurateRip вернул [3C7A8E7F]
Трек 3 точность не определена (достоверность 1) [E0BD87A1], AccurateRip вернул [C0785BC9]
Трек 4 точность не определена (достоверность 1) [56098381], AccurateRip вернул [748C9261]
Трек 5 точность не определена (достоверность 1) [A78AA407], AccurateRip вернул [48F9BF9F]
Трек 6 точность не определена (достоверность 1) [EE3C8F23], AccurateRip вернул [F16D9343]
Трек 7 точность не определена (достоверность 1) [0AA35866], AccurateRip вернул [CAC1183E]
Трек 8 точность не определена (достоверность 1) [20CADC6C], AccurateRip вернул [90EF122C]
Трек 9 точность не определена (достоверность 1) [F6A3E488], AccurateRip вернул [BD1E1328]
Трек 10 точность не определена (достоверность 1) [8344A4F9], AccurateRip вернул [8EBD18B1]
Трек 11 точность не определена (достоверность 1) [55140B1A], AccurateRip вернул [D21CC07A]

Ни один трек не прошёл проверки на точность
В вашей базе может быть иной вариант штамповки диска

Конец отчёта

Mega l MultiUp l Narod

Источник,как обычно,мой CD...Приятного прослушивания!


Top
 Profile  
 
 
PostPosted: 17 Jul 2010 
Генеральный thrasher
User avatar
Joined: 03 Oct 2008
Posts: 3445
Lоcаtion: Ханты-Мансийский АО
Age: 43
Name: Сергей
Image

Year:1991 (2004 Re-Issue)
Style:Thrash Metal
Country:Brasil
Audio:Flac+Cue+Log
Size:295Mb
Label:Cogumelo Records

Line-Up:
Fabio Moreira - Vocals
Joгo Paulo Francis - Guitar
Joгo Marcio Francis - Guitar
Andre Rod - Bass
Mario Sanefuji - Drums

Tracklist:
1. Ways of Death 04:01
2. The Chainsaw 03:42
3. Deathraiser 04:24
4. Violence and Terror 03:29
5. Blood 04:47
6. From Beyond 04:15
7. Forbidden Hate 05:04
8. Deathraiser (live-bonus) 04:24
9. Ways of Death (live-bonus) 03:57

Cue
REM GENRE "Trash Metal"
REM DATE 1991
REM DISCID 7308EE09
REM COMMENT "ExactAudioCopy v0.99pb4"
PERFORMER "Attomica"
TITLE "Disturbing The Noise"
FILE "Attomica - Disturbing The Noise.flac" WAVE
TRACK 01 AUDIO
TITLE "Ways Of Death"
PERFORMER "Attomica"
INDEX 01 00:00:00
TRACK 02 AUDIO
TITLE "The Chainsaw"
PERFORMER "Attomica"
INDEX 00 03:59:29
INDEX 01 04:01:29
TRACK 03 AUDIO
TITLE "Deathraiser"
PERFORMER "Attomica"
INDEX 00 07:41:68
INDEX 01 07:43:69
TRACK 04 AUDIO
TITLE "Violence And Terror"
PERFORMER "Attomica"
INDEX 00 12:06:37
INDEX 01 12:08:37
TRACK 05 AUDIO
TITLE "Blood"
PERFORMER "Attomica"
INDEX 00 15:35:46
INDEX 01 15:37:46
TRACK 06 AUDIO
TITLE "From Beyond"
PERFORMER "Attomica"
INDEX 00 20:23:05
INDEX 01 20:25:05
TRACK 07 AUDIO
TITLE "Forbidden Hate "
PERFORMER "Attomica"
INDEX 00 24:38:40
INDEX 01 24:40:38
TRACK 08 AUDIO
TITLE "Deathraiser (Live)"
PERFORMER "Attomica"
INDEX 01 29:45:34
TRACK 09 AUDIO
TITLE "Ways Of Death (Live)"
PERFORMER "Attomica"
INDEX 01 34:09:28

Log
Exact Audio Copy V0.99 prebeta 4 from 23. January 2008

Отчёт EAC об извлечении, выполненном 17. июля 2010, 9:48

Attomica / Disturbing The Noise

Дисковод: TSSTcorpCDDVDW SH-S202N Adapter: 0 ID: 1

Режим чтения : Достоверность
Использование точного потока : Да
Отключение кэша аудио : Да
Использование указателей C2 : Нет

Коррекция смещения при чтении : 6
Способность читать области Lead-in и Lead-out : Нет
Заполнение пропущенных сэмплов тишиной : Да
Удаление блоков с тишиной в начале и конце : Нет
При вычислениях CRC использовались нулевые сэмплы : Нет
Интерфейс : Установленный внешний ASPI-интерфейс

Выходной формат : Пользовательский кодировщик
Выбранный битрейт : 768 kBit/s
Качество : Высокий
Добавление ID3-тэга : Нет
Утилита сжатия : C:\Program Files\Exact Audio Copy\FLAC\FLAC.EXE
Дополнительные параметры : -6 -V -T "ARTIST=%a" -T "TITLE=%t" -T "ALBUM=%g" -T "DATE=%y" -T "TRACKNUMBER=%n" -T "GENRE=%m" -T "COMMENT=%e" %s -o %d


TOC извлечённого CD

Трек | Старт | Длительность | Начальный сектор | Конечный сектор
---------------------------------------------------------------------
1 | 0:00.00 | 4:01.29 | 0 | 18103
2 | 4:01.29 | 3:42.40 | 18104 | 34793
3 | 7:43.69 | 4:24.43 | 34794 | 54636
4 | 12:08.37 | 3:29.09 | 54637 | 70320
5 | 15:37.46 | 4:47.34 | 70321 | 91879
6 | 20:25.05 | 4:15.33 | 91880 | 111037
7 | 24:40.38 | 5:04.71 | 111038 | 133908
8 | 29:45.34 | 4:23.69 | 133909 | 153702
9 | 34:09.28 | 3:57.10 | 153703 | 171487


Характеристики диапазона извлечения и сообщения об ошибках

Выбранный диапазон

Имя файла F:\Лоси\A\Attomica - Disturbing The Noise.wav

Пиковый уровень 99.6 %
Качество диапазона 100.0 %
CRC копии D8CBF551
Копирование... OK

Ошибок не произошло


AccurateRip: сводка

Трек 1 точность не определена (достоверность 1) [027E0BEE], AccurateRip вернул [3D4BD286]
Трек 2 точность не определена (достоверность 1) [9A3C5638], AccurateRip вернул [3F6D15F4]
Трек 3 точность не определена (достоверность 1) [71573028], AccurateRip вернул [E1A3B956]
Трек 4 точность не определена (достоверность 1) [1CC84ED7], AccurateRip вернул [D4B6139D]
Трек 5 точность не определена (достоверность 1) [175BBB20], AccurateRip вернул [AB0D52EE]
Трек 6 точность не определена (достоверность 1) [22F003BD], AccurateRip вернул [8A6EFA3D]
Трек 7 точность не определена (достоверность 1) [FD19E124], AccurateRip вернул [6E1709BE]
Трек 8 точность не определена (достоверность 1) [D39D998F], AccurateRip вернул [FA29F700]
Трек 9 точность не определена (достоверность 1) [A55C9C63], AccurateRip вернул [CA2AA167]

Ни один трек не прошёл проверки на точность
В вашей базе может быть иной вариант штамповки диска

Конец отчёта

Ifolder


Top
 Profile  
 
 
PostPosted: 17 Jul 2010 
Работнечег
User avatar
Joined: 28 Aug 2007
Posts: 5409
Lоcаtion: г. Москва
Age: 29
Name: Дима
Спасибо большое, Серёг!Наконец-то группа в качестве будет!у Спидика затарился?) :oops:


Top
 Profile E-mail  
 
 
PostPosted: 17 Jul 2010 
Работнечег
User avatar
Joined: 28 Aug 2007
Posts: 5409
Lоcаtion: г. Москва
Age: 29
Name: Дима
Отличный альбом! В своё время произёл очень хорошее впечатление!Спасибо! :thanx:


Top
 Profile E-mail  
 
 
PostPosted: 17 Jul 2010 
Генеральный thrasher
User avatar
Joined: 03 Oct 2008
Posts: 3445
Lоcаtion: Ханты-Мансийский АО
Age: 43
Name: Сергей
church wrote:
у Спидика затарился?) :oops:


Ага...На здоровье,Дим! :losik: :true:


Top
 Profile  
 
 
PostPosted: 17 Jul 2010 
Генеральный thrasher
User avatar
Joined: 03 Oct 2008
Posts: 3445
Lоcаtion: Ханты-Мансийский АО
Age: 43
Name: Сергей
Пожалуйста.. :losik: :true:


Top
 Profile  
 
 
PostPosted: 17 Jul 2010 
Хиппей (support team)
User avatar
Joined: 30 Jul 2007
Posts: 106323
Lоcаtion: Киев (Kyiv, UA)
Age: 45
Name: Andrey
Серёга, спасибо! :thanx:

_________________


Top
 Profile E-mail  
 
 
PostPosted: 17 Jul 2010 
Хиппей (support team)
User avatar
Joined: 30 Jul 2007
Posts: 106323
Lоcаtion: Киев (Kyiv, UA)
Age: 45
Name: Andrey
:thanx: :true:
mirror: MultiUp l Narod

_________________


Top
 Profile E-mail  
 
Display posts from previous:  Sort by  
Post new topic Reply to topic  [ 93 posts ]  Go to page Previous  1, 2, 3, 4, 5  Next

All times are UTC + 3 hours


Who is online

Users browsing this forum: No registered users and 2 guests


You cannot post new topics in this forum
You cannot reply to topics in this forum
You cannot edit your posts in this forum
You cannot delete your posts in this forum
You cannot post attachments in this forum

Search for:
Яндекс.Метрика
Powered by phpBB © 2000, 2002, 2005, 2007 phpBB Group