\m/ 80's metal \m/

Информационно-аналитический форум "80 см пыли" (In Search We Trust) "У нас никто никуда не спешит"
Железнодорожная биржа - RailAgent
It is currently 21 Jul 2017

All times are UTC + 3 hours

Spoiler
Chat - temporary registration for foreign users (please leave your application here)







Post new topic Reply to topic  [ 13 posts ] 
Author Message
 
PostPosted: 05 Oct 2016 
Генеральный thrasher
User avatar
Joined: 03 Oct 2008
Posts: 3068
Lоcаtion: Ханты-Мансийский АО
Age: 42
Name: Сергей
> Осталось найти: | Still looking:
Agressor - Destruição Metálica 2012 (EP)

Я на трэкере раздаю ещё бразилов - два альбома и демки. Серёг,послушай Agressor.Тебе должно покатить.

2016 (сборка демок) https://rutracker.org/forum/viewtopic.php?t=5364205
2014 https://rutracker.org/forum/viewtopic.php?t=5289915
2006 https://rutracker.org/forum/viewtopic.php?t=5281151


Top
 Profile  
 
 
PostPosted: 05 Oct 2016 
консэрваторъ
Joined: 11 Aug 2007
Posts: 13462
Lоcаtion: Псков
Age: 43
Name: Сергей
Эти?.. :arrov: http://www.metal-archives.com/bands/Agressor/4404

_________________
THRASH 'EM ALL


Top
 Profile E-mail  
 
 
PostPosted: 05 Oct 2016 
Генеральный thrasher
User avatar
Joined: 03 Oct 2008
Posts: 3068
Lоcаtion: Ханты-Мансийский АО
Age: 42
Name: Сергей
Ага


Top
 Profile  
 
 
PostPosted: 05 Oct 2016 
Хиппей (support team)
User avatar
Joined: 30 Jul 2007
Posts: 91993
Lоcаtion: Киев (Kyiv, UA)
Age: 44
Name: Andrey
thorbeorn wrote:
два альбома Agressor

Агрессор мощны, ага :lob: Были.

_________________


Top
 Profile E-mail  
 
 
PostPosted: 16 Apr 2017 
консэрваторъ
Joined: 11 Aug 2007
Posts: 13462
Lоcаtion: Псков
Age: 43
Name: Сергей
Тема выросла из отседова... :arrov: viewtopic.php?f=178&t=12925 из концовки темы...

Друзья, помогите дособирать дискографию минимум в 320, не хватает вот этого релиза...

Agressor - Destruição Metálica 2012 (EP)

Image

Destruição Metálica 1986 (Demo)
1. Século XX
2. Juízo Final
3. III Guerra Mundial
4. Destruição Metálica
outtakes recorded in 1986
5. Juízo Final (rehearsal w/ no vocals)
6. III Guerra Mundial (rehearsal)
7. Século XX / Fight till Death (Slayer cover)
outtake recorded in 1983
8. Sexta-Feira 13

Сама первая демка конечно в сети есть, но только в 128 и более ранние записи конечно вызывают неподдельный интерес... :oops:

И ещё заметка!.. На титульной странице группы на архивах неправильно написано название песни с которой они участвовали на компиляции "Headbangers Metal Reunion compilation Vol 1" 2008... Правильное название трека Old Man... :arrov: http://www.spirit-of-metal.com/album-gr ... -l-ru.html А то я тут уже пол интернета перерыл за зря... :oops:

_________________
THRASH 'EM ALL


Top
 Profile E-mail  
 
 
PostPosted: 16 Apr 2017 
Генеральный thrasher
User avatar
Joined: 03 Oct 2008
Posts: 3068
Lоcаtion: Ханты-Мансийский АО
Age: 42
Name: Сергей
Не стал я эту епишку покупать.Думаю там качество ещё хуже,чем на переиздании демки Kill Or Die,которую я тоже раздаю на трэкере.


Top
 Profile  
 
 
PostPosted: 16 Apr 2017 
консэрваторъ
Joined: 11 Aug 2007
Posts: 13462
Lоcаtion: Псков
Age: 43
Name: Сергей
Этот вариант рассматривал?..

Image

http://www.ebay.com/itm/Agressor-Destru ... 1360370627

_________________
THRASH 'EM ALL


Top
 Profile E-mail  
 
 
PostPosted: 18 Apr 2017 
Генеральный thrasher
User avatar
Joined: 03 Oct 2008
Posts: 3068
Lоcаtion: Ханты-Мансийский АО
Age: 42
Name: Сергей
Серёга,никакие варианты не рассматривал.Такие деньги отдавать непонятно за что!


Top
 Profile  
 
 
PostPosted: 18 Apr 2017 
Хиппей (support team)
User avatar
Joined: 30 Jul 2007
Posts: 91993
Lоcаtion: Киев (Kyiv, UA)
Age: 44
Name: Andrey
splatty wrote:
Этот вариант рассматривал?..

Олень? :scratch:

_________________


Top
 Profile E-mail  
 
 
PostPosted: 18 Apr 2017 
Хиппей (support team)
User avatar
Joined: 30 Jul 2007
Posts: 91993
Lоcаtion: Киев (Kyiv, UA)
Age: 44
Name: Andrey
Качнул Серёгины "релизы" с Трахтора :thanx:
Перелью помалу =)

_________________


Top
 Profile E-mail  
 
 
PostPosted: 18 Apr 2017 
Хиппей (support team)
User avatar
Joined: 30 Jul 2007
Posts: 91993
Lоcаtion: Киев (Kyiv, UA)
Age: 44
Name: Andrey
thorbeorn wrote:

:thanx:

Agressor - 2016 - Kill or Die (comp.) [flac]

Image Image

mirror: Depos l Narod l M-Cloud

От тяжёлого панка подвального до брутальненького трэша сборник прошёл путь, но... запомнился лишь невнятным саудом и резкимии несуразными движениямию пардоню
Сразу снова с пищей - это как нелепая хозяйка купила магазинные вареники и пытается и готовить, мало того, что не на пару, а просто бросив в ... ещё не закипевшую воду :cry:
В общем, компиляшка онли для трух фэнс ентат группа.

4-/10

Image Image Image
Image Image Image Image
Image ImageImage Image

log
Exact Audio Copy V1.1 from 23. June 2015

Отчёт EAC об извлечении, выполненном 1. октября 2016, 11:34

Agressor / Kill Or Die

Дисковод: HL-DT-STDVDRAM GTA0N Adapter: 1 ID: 0

Режим чтения : Достоверность
Использование точного потока : Да
Отключение кэша аудио : Да
Использование указателей C2 : Нет

Коррекция смещения при чтении : 102
Способность читать области Lead-in и Lead-out : Нет
Заполнение пропущенных сэмплов тишиной : Да
Удаление блоков с тишиной в начале и конце : Нет
При вычислениях CRC использовались нулевые сэмплы : Да
Интерфейс : Встроенный Win32-интерфейс для Win NT/2000

Выходной формат : Пользовательский кодировщик
Выбранный битрейт : 768 kBit/s
Качество : Высокий
Добавление ID3-тега : Нет
Утилита сжатия : C:\Program Files (x86)\Exact Audio Copy\FLAC\FLAC.EXE
Дополнительные параметры : -6 -V -T "ARTIST=%artist%" -T "TITLE=%title%" -T "ALBUM=%albumtitle%" -T "DATE=%year%" -T "TRACKNUMBER=%tracknr%" -T "GENRE=%genre%" -T "COMMENT=%comment%" -T "BAND=%albuminterpret%" -T "ALBUMARTIST=%albuminterpret%" -T "COMPOSER=%composer%" %haslyrics%--tag-from-file=LYRICS="%lyricsfile%"%haslyrics% -T "DISCNUMBER=%cdnumber%" -T "TOTALDISCS=%totalcds%" -T "TOTALTRACKS=%numtracks%" %hascover%--picture="%coverfile%"%hascover% %source% -o %dest%


TOC извлечённого CD

Трек | Старт | Длительность | Начальный сектор | Конечный сектор
---------------------------------------------------------------------
1 | 0:00.00 | 1:11.56 | 0 | 5380
2 | 1:11.56 | 1:36.68 | 5381 | 12648
3 | 2:48.49 | 4:21.61 | 12649 | 32284
4 | 7:10.35 | 5:03.15 | 32285 | 55024
5 | 12:13.50 | 6:03.68 | 55025 | 82317
6 | 18:17.43 | 3:53.12 | 82318 | 99804
7 | 22:10.55 | 4:01.18 | 99805 | 117897
8 | 26:11.73 | 4:33.35 | 117898 | 138407
9 | 30:45.33 | 6:56.14 | 138408 | 169621
10 | 37:41.47 | 1:47.01 | 169622 | 177647
11 | 39:28.48 | 5:16.64 | 177648 | 201411
12 | 44:45.37 | 4:21.16 | 201412 | 221002
13 | 49:06.53 | 6:19.16 | 221003 | 249443


Характеристики диапазона извлечения и сообщения об ошибках

Выбранный диапазон

Имя файла C:\Users\магазин\Music\Agressor - Kill Or Die.wav

Пиковый уровень 100.0 %
Скорость извлечения 4.1 X
Качество диапазона 100.0 %
CRC копии 9A7C8564
Копирование... OK

Ошибок не произошло


AccurateRip: сводка

Трек 1 отсутствует в базе данных
Трек 2 отсутствует в базе данных
Трек 3 отсутствует в базе данных
Трек 4 отсутствует в базе данных
Трек 5 отсутствует в базе данных
Трек 6 отсутствует в базе данных
Трек 7 отсутствует в базе данных
Трек 8 отсутствует в базе данных
Трек 9 отсутствует в базе данных
Трек 10 отсутствует в базе данных
Трек 11 отсутствует в базе данных
Трек 12 отсутствует в базе данных
Трек 13 отсутствует в базе данных

Ни одного трека нет в базе AccurateRip

Конец отчёта

---- CUETools DB Plugin V2.1.6

[CTDB TOCID: JRVeBJVXHr2fD9EnrCvUYTSnd_M-] disk not present in database
Submit result: JRVeBJVXHr2fD9EnrCvUYTSnd_M- has been uploaded

cue
REM GENRE "Thrash Metal"
REM DATE 2016
REM DISCID B30CFD0D
REM COMMENT "ExactAudioCopy v1.1"
PERFORMER "Agressor"
TITLE "Kill Or Die"
FILE "Agressor - Kill Or Die.flac" WAVE
TRACK 01 AUDIO
TITLE "Intro"
PERFORMER "Agressor"
FLAGS DCP
INDEX 01 00:00:00
TRACK 02 AUDIO
TITLE "Kill Or Die"
PERFORMER "Agressor"
FLAGS DCP
INDEX 01 01:11:56
TRACK 03 AUDIO
TITLE "Spirit of Death"
PERFORMER "Agressor"
FLAGS DCP
INDEX 00 02:48:44
INDEX 01 02:48:49
TRACK 04 AUDIO
TITLE "Lullaby"
PERFORMER "Agressor"
FLAGS DCP
INDEX 00 07:10:34
INDEX 01 07:10:35
TRACK 05 AUDIO
TITLE "Mercenary Politician"
PERFORMER "Agressor"
FLAGS DCP
INDEX 01 12:13:50
TRACK 06 AUDIO
TITLE "Toxicomaniac"
PERFORMER "Agressor"
FLAGS DCP
INDEX 01 18:17:43
TRACK 07 AUDIO
TITLE "Accidental Murder"
PERFORMER "Agressor"
FLAGS DCP
INDEX 01 22:10:55
TRACK 08 AUDIO
TITLE "Spirit of Death"
PERFORMER "Agressor"
FLAGS DCP
INDEX 00 26:11:72
INDEX 01 26:11:73
TRACK 09 AUDIO
TITLE "Lullaby"
PERFORMER "Agressor"
FLAGS DCP
INDEX 01 30:45:33
TRACK 10 AUDIO
TITLE "Kill Or Die"
PERFORMER "Agressor"
FLAGS DCP
INDEX 01 37:41:47
TRACK 11 AUDIO
TITLE "Lullaby"
PERFORMER "Agressor"
FLAGS DCP
INDEX 01 39:28:48
TRACK 12 AUDIO
TITLE "Spirit of Death"
PERFORMER "Agressor"
FLAGS DCP
INDEX 01 44:45:37
TRACK 13 AUDIO
TITLE "Mercenary Politician"
PERFORMER "Agressor"
FLAGS DCP
INDEX 01 49:06:53

_________________


Top
 Profile E-mail  
 
 
PostPosted: 18 Apr 2017 
Хиппей (support team)
User avatar
Joined: 30 Jul 2007
Posts: 91993
Lоcаtion: Киев (Kyiv, UA)
Age: 44
Name: Andrey
thorbeorn wrote:

:thanx:

Agressor - 2006 - Victim of Yourself [flac]

Image Image Image

mirror: Depos l Narod l M-Cloud

Обычная помесь таких классических групп, как Kreator + Sepultura + иногда визги Slayer.

5/10

Вполне качественная копия вышеназванных ансамблей.

Image Image Image Image
Image Image Image Image

log
Exact Audio Copy V1.1 from 23. June 2015

Отчёт EAC об извлечении, выполненном 12. сентября 2016, 13:48

Agressor / Victim of Yourself

Дисковод: HL-DT-STDVDRAM GTA0N Adapter: 1 ID: 0

Режим чтения : Достоверность
Использование точного потока : Да
Отключение кэша аудио : Да
Использование указателей C2 : Нет

Коррекция смещения при чтении : 102
Способность читать области Lead-in и Lead-out : Нет
Заполнение пропущенных сэмплов тишиной : Да
Удаление блоков с тишиной в начале и конце : Нет
При вычислениях CRC использовались нулевые сэмплы : Да
Интерфейс : Встроенный Win32-интерфейс для Win NT/2000

Выходной формат : Пользовательский кодировщик
Выбранный битрейт : 768 kBit/s
Качество : Высокий
Добавление ID3-тега : Нет
Утилита сжатия : C:\Program Files (x86)\Exact Audio Copy\FLAC\FLAC.EXE
Дополнительные параметры : -6 -V -T "ARTIST=%artist%" -T "TITLE=%title%" -T "ALBUM=%albumtitle%" -T "DATE=%year%" -T "TRACKNUMBER=%tracknr%" -T "GENRE=%genre%" -T "COMMENT=%comment%" -T "BAND=%albuminterpret%" -T "ALBUMARTIST=%albuminterpret%" -T "COMPOSER=%composer%" %haslyrics%--tag-from-file=LYRICS="%lyricsfile%"%haslyrics% -T "DISCNUMBER=%cdnumber%" -T "TOTALDISCS=%totalcds%" -T "TOTALTRACKS=%numtracks%" %hascover%--picture="%coverfile%"%hascover% %source% -o %dest%


TOC извлечённого CD

Трек | Старт | Длительность | Начальный сектор | Конечный сектор
---------------------------------------------------------------------
1 | 0:00.00 | 4:29.61 | 0 | 20235
2 | 4:29.61 | 5:01.60 | 20236 | 42870
3 | 9:31.46 | 4:07.59 | 42871 | 61454
4 | 13:39.30 | 5:30.67 | 61455 | 86271
5 | 19:10.22 | 3:48.32 | 86272 | 103403
6 | 22:58.54 | 5:10.18 | 103404 | 126671
7 | 28:08.72 | 4:22.01 | 126672 | 146322
8 | 32:30.73 | 5:04.15 | 146323 | 169137
9 | 37:35.13 | 3:53.18 | 169138 | 186630
10 | 41:28.31 | 3:51.63 | 186631 | 204018


Характеристики диапазона извлечения и сообщения об ошибках

Выбранный диапазон

Имя файла C:\Users\магазин\Music\Agressor - Victim of Yourself.wav

Пиковый уровень 96.9 %
Скорость извлечения 2.0 X
Качество диапазона 100.0 %
CRC копии 7646D664
Копирование... OK

Ошибок не произошло


AccurateRip: сводка

Трек 1 точность не определена (достоверность 1) [1E5AF169], AccurateRip вернул [2EE3F2E4] (AR v2)
Трек 2 точность не определена (достоверность 1) [4D3402CB], AccurateRip вернул [78DB9ADA] (AR v2)
Трек 3 точность не определена (достоверность 1) [85A36B87], AccurateRip вернул [9A1142B1] (AR v2)
Трек 4 точность не определена (достоверность 1) [01E041A6], AccurateRip вернул [7BE49FDB] (AR v2)
Трек 5 точность не определена (достоверность 1) [016B6350], AccurateRip вернул [1C87FA8D] (AR v2)
Трек 6 точность не определена (достоверность 1) [483CDD09], AccurateRip вернул [BACD2D46] (AR v2)
Трек 7 точность не определена (достоверность 1) [DED81C64], AccurateRip вернул [C7E06F3F] (AR v2)
Трек 8 точность не определена (достоверность 1) [BF576290], AccurateRip вернул [F9406035] (AR v2)
Трек 9 точность не определена (достоверность 1) [1393DF39], AccurateRip вернул [7C8B72E0] (AR v2)
Трек 10 точность не определена (достоверность 1) [3CE1EF50], AccurateRip вернул [B3274051] (AR v2)

Ни один трек не прошёл проверки на точность
В вашей базе может быть иной вариант штамповки диска

Конец отчёта

---- CUETools DB Plugin V2.1.6

[CTDB TOCID: 7.4wqMIquy6SA.1OvanG8sO.Pxw-] disk not present in database
Submit result: 7.4wqMIquy6SA.1OvanG8sO.Pxw- has been uploaded

cue
REM GENRE "Thrash Metal"
REM DATE 2006
REM DISCID 7B0AA00A
REM COMMENT "ExactAudioCopy v1.1"
PERFORMER "Agressor"
TITLE "Victim of Yourself"
FILE "Agressor - Victim of Yourself.flac" WAVE
TRACK 01 AUDIO
TITLE "Toxicomaniac"
PERFORMER "Agressor"
INDEX 01 00:00:00
TRACK 02 AUDIO
TITLE "Old Man"
PERFORMER "Agressor"
INDEX 01 04:29:61
TRACK 03 AUDIO
TITLE "P-36"
PERFORMER "Agressor"
INDEX 01 09:31:46
TRACK 04 AUDIO
TITLE "Onde esta a Coragem?"
PERFORMER "Agressor"
INDEX 01 13:39:30
TRACK 05 AUDIO
TITLE "Sacred Words"
PERFORMER "Agressor"
INDEX 01 19:10:22
TRACK 06 AUDIO
TITLE "Manipulation of Masses"
PERFORMER "Agressor"
INDEX 01 22:58:54
TRACK 07 AUDIO
TITLE "Eyes to the World"
PERFORMER "Agressor"
INDEX 01 28:08:72
TRACK 08 AUDIO
TITLE "Mercenary Politician"
PERFORMER "Agressor"
INDEX 01 32:30:73
TRACK 09 AUDIO
TITLE "Dr. Death"
PERFORMER "Agressor"
INDEX 01 37:35:13
TRACK 10 AUDIO
TITLE "Puppets of Society"
PERFORMER "Agressor"
INDEX 01 41:28:31

_________________


Top
 Profile E-mail  
 
 
PostPosted: 18 Apr 2017 
Хиппей (support team)
User avatar
Joined: 30 Jul 2007
Posts: 91993
Lоcаtion: Киев (Kyiv, UA)
Age: 44
Name: Andrey
thorbeorn wrote:


:thanx:

Agressor - 2014 - Demise Of Life [flac]

Image Image Image



mirror: Depos l Narod l M-Cloud

Image

Вокалист сменился, шоле?
В общем, такую музыку надо было играть в конце 80-х, а не сейчас.
Или я чего-то не раскурил и не заметил интересного в творчестве сего коллектива :vic:

6/10

Image Image Image

_________________


Top
 Profile E-mail  
 
Display posts from previous:  Sort by  
Post new topic Reply to topic  [ 13 posts ] 

All times are UTC + 3 hours


Who is online

Users browsing this forum: No registered users and 1 guest


You cannot post new topics in this forum
You cannot reply to topics in this forum
You cannot edit your posts in this forum
You cannot delete your posts in this forum
You cannot post attachments in this forum

Search for:
Яндекс.Метрика
Powered by phpBB © 2000, 2002, 2005, 2007 phpBB Group