\m/ 80's metal \m/

Информационно-аналитический форум "80 см пыли" (In Search We Trust) "У нас никто никуда не спешит"
Me For You - http://me-4u.com
It is currently 20 Apr 2019

All times are UTC + 3 hours

Spoiler
Chat - temporary registration for foreign users (please leave your application here)







Post new topic Reply to topic  [ 14 posts ] 
Author Message
 
PostPosted: 23 Jan 2015 
Труъ
User avatar
Joined: 28 Mar 2013
Posts: 142
Lоcаtion: Северна Корея
Name: /Kim
hi folks
has anyone this album?

Andra - Circle Of Fire (2002)

Image

Genre: Melodic Power Metal
Country: Germany

Tracklist:
1. Bloody Lies
2. Love Changes to Hate
3. False Religion
4. Ratrace
5. Broken Mirrors
6. I Will Survive (Gloria Gaynor cover)
7. La Rosa Del Amor
8. I Share Your Dreams
9. Angel
10. The Circle of Fire

http://www.metal-archives.com/bands/Andra/5855

I saw here, but the link is dead

http://metalarea.org/forum/index.php?showtopic=109497


Top
 Profile E-mail  
 
 
PostPosted: 24 Jan 2015 
Персональный статус
User avatar
Joined: 28 Mar 2013
Posts: 420
Lоcаtion: Russia (Bryansk)
Age: 25
Name: Michael
Здесь нашёл: http://ulozto.net/x2hpUdKw/andra-2003-circle-of-fire-ger-ok-tag-7z


Top
 Profile E-mail  
 
 
PostPosted: 24 Jan 2015 
Труъ
User avatar
Joined: 28 Mar 2013
Posts: 142
Lоcаtion: Северна Корея
Name: /Kim
спасибо

:thanx:


Top
 Profile E-mail  
 
 
PostPosted: 24 Jun 2016 
Rara avis
User avatar
Joined: 27 Jan 2009
Posts: 4942
Name: .
Перелила:
Andra - Circle Of Fire (2003) - https://yadi.sk/d/Wubww77VsktWb


Top
 Profile E-mail  
 
 
PostPosted: 25 Jun 2016 
Хиппей (support team)
User avatar
Joined: 30 Jul 2007
Posts: 111727
Lоcаtion: Киев (Kyiv, UA)
Age: 45
Name: Andrey
:thanx:

mirror: iFolder l Narod l M-Cloud

_________________


Top
 Profile E-mail  
 
 
PostPosted: 25 Jun 2016 
Хиппей (support team)
User avatar
Joined: 30 Jul 2007
Posts: 111727
Lоcаtion: Киев (Kyiv, UA)
Age: 45
Name: Andrey
А вот неплохой альбом гражданка Андра и именитые сотоварищи записали.
Егору точно понравится :dance:
Мне же из 10 композиций вштырило 6-7. Хотя, и это довольно прилично :meloman:

6+/10

Image

_________________


Top
 Profile E-mail  
 
 
PostPosted: 08 Aug 2016 
Power Metal Maniac
User avatar
Joined: 09 Aug 2008
Posts: 6670
Lоcаtion: Москва
Age: 41
Name: Егор
:thanx:

_________________
Long Live Metal!


Top
 Profile  
 
 
PostPosted: 07 Mar 2018 
Power Metal Maniac
User avatar
Joined: 09 Aug 2008
Posts: 6670
Lоcаtion: Москва
Age: 41
Name: Егор
Andra - Circle of Fire (2002)

Image

Label: Dark Eden
Catalog ID: N/A
Format: CD
Lineup:
Band members:
Michael Wunsch - Bass
Guido Gaubiers - Drums
Florian Haack - Guitars
Andrea Münster - Vocals

Additional Notes:
Identifiers:
Barcode: 4 000300 020029

TrackList:
1. Bloody Lies 04:21 4.7
2. Love Changes to Hate 03:244.7
3. False Religion 04:50 4.8
4. Ratrace 05:57 4.85
5. Broken Mirrors 04:18 3.9
6. I Will Survive (Gloria Gaynor cover) 03:51 4.8
7. La rosa del amor 04:02 5.0
8. I Share Your Dreams 04:28 4.9
9. Angel 05:55 4.6
10. The Circle of Fire 05:07 4.55
Total playing time: 46:13

Единственный альбом малоизвестной немецкой группы. Довольно мощный Heavy Metal, иногда переходящий в Power, со своеобразным, но сильным женским вокалом, чистым, почти без свойственной жанру хрипотцы. Впрочем, вокалистка Andrea Münster успела засветится в нескольких локальных германских коллективах, включая Helicon в его самые ранние годы (пела на первой демке).
Сравнить с каким-то коллективом сложно, вроде бы ничего оригинального здесь не слышно, но в то же время группа никому определенно не подражает, а вокал тем более добавляет шарма.
Песни довольно ровные по качеству, относительно тяжёлые по саунду, местами мелодичные, хотя не везде хватает выразительности. Выделить стоит False Religion, Ratrace (удачно совмещающий акустические части с быстротемповыми), кавер на мегаизвестную I Will Survive (особенно хорош, когда группа переходят к Power Metal’лической интерпретации песни, вообще стоило ее полностью так исполнить), испаноязычную La rosa del amor (самую Power’ную на альбоме, и для меня определённо здесь лучшую), а также I Share Your Dreams.
Баллада Broken Mirrors вполне естественно ничем интересным не запомнилась.
В целом, добротный, но далеко не самый цепляющий материал, но возможно альбом будет интересен любителям не самого банального Хэви с хорошим женским вокалом.
4.7/6.0 (8/10)
07.03.2018
I Will Survive

_________________
Long Live Metal!


Top
 Profile  
 
 
PostPosted: 03 Apr 2019 
Работнечег
User avatar
Joined: 28 Aug 2007
Posts: 5804
Lоcаtion: г. Москва
Age: 30
Name: Дима
Image

Format: FLAC + CUE + LOG + covers
Label: Dark Eden
Size: 355 Mb

Line-Up:
Michael Wunsch - Bass
Guido Gaubiers - Drums
Florian Haack - Guitars
Andrea Münster - Vocals



Tracklist:
1. Bloody Lies
2. Love Changes to Hate
3. False Religion
4. Ratrace
5. Broken Mirrors
6. I Will Survive (Gloria Gaynor cover)
7. La Rosa Del Amor
8. I Share Your Dreams
9. Angel
10. The Circle of Fire

LOG
Exact Audio Copy V1.3 from 2. September 2016

EAC extraction logfile from 23. March 2019, 18:15

Andra / Circle Of Fire

Used drive : PIONEER DVD-RW DVR-221 Adapter: 1 ID: 0

Read mode : Secure
Utilize accurate stream : Yes
Defeat audio cache : Yes
Make use of C2 pointers : No

Read offset correction : 6
Overread into Lead-In and Lead-Out : No
Fill up missing offset samples with silence : Yes
Delete leading and trailing silent blocks : No
Null samples used in CRC calculations : Yes
Used interface : Native Win32 interface for Win NT & 2000

Used output format : User Defined Encoder
Selected bitrate : 768 kBit/s
Quality : High
Add ID3 tag : No
Command line compressor : C:\Program Files (x86)\Exact Audio Copy\FLAC\FLAC.EXE
Additional command line options : -6 -V -T "ARTIST=%artist%" -T "TITLE=%title%" -T "ALBUM=%albumtitle%" -T "DATE=%year%" -T "TRACKNUMBER=%tracknr%" -T "GENRE=%genre%" -T "COMMENT=%comment%" -T "BAND=%albuminterpret%" -T "ALBUMARTIST=%albuminterpret%" -T "COMPOSER=%composer%" %haslyrics%--tag-from-file=LYRICS="%lyricsfile%"%haslyrics% -T "DISCNUMBER=%cdnumber%" -T "TOTALDISCS=%totalcds%" -T "TOTALTRACKS=%numtracks%" %hascover%--picture="%coverfile%"%hascover% %source% -o %dest%


TOC of the extracted CD

Track | Start | Length | Start sector | End sector
---------------------------------------------------------
1 | 0:00.00 | 4:20.74 | 0 | 19573
2 | 4:20.74 | 3:24.22 | 19574 | 34895
3 | 7:45.21 | 4:50.55 | 34896 | 56700
4 | 12:36.01 | 5:57.02 | 56701 | 83477
5 | 18:33.03 | 4:18.54 | 83478 | 102881
6 | 22:51.57 | 3:51.10 | 102882 | 120216
7 | 26:42.67 | 4:02.23 | 120217 | 138389
8 | 30:45.15 | 4:27.70 | 138390 | 158484
9 | 35:13.10 | 5:55.07 | 158485 | 185116
10 | 41:08.17 | 5:07.22 | 185117 | 208163


Range status and errors

Selected range

Filename D:\Музыка\Lossless\Andra - Circle Of Fire (2002)\Andra - Circle Of Fire.wav

Peak level 100.0 %
Extraction speed 2.7 X
Range quality 99.9 %
Copy CRC ADC6233D
Copy OK

No errors occurred


AccurateRip summary

Track 1 not present in database
Track 2 not present in database
Track 3 not present in database
Track 4 not present in database
Track 5 not present in database
Track 6 not present in database
Track 7 not present in database
Track 8 not present in database
Track 9 not present in database
Track 10 not present in database

None of the tracks are present in the AccurateRip database

End of status report

---- CUETools DB Plugin V2.1.6

[CTDB TOCID: BCUmzLKOXdIzfQleAAgvWWfcH34-] found
Submit result: BCUmzLKOXdIzfQleAAgvWWfcH34- has been confirmed
Track | CTDB Status
1 | (1/1) Accurately ripped
2 | (1/1) Accurately ripped
3 | (1/1) Accurately ripped
4 | (1/1) Accurately ripped
5 | (1/1) Accurately ripped
6 | (1/1) Accurately ripped
7 | (1/1) Accurately ripped
8 | (1/1) Accurately ripped
9 | (1/1) Accurately ripped
10 | (1/1) Accurately ripped


CUE
REM GENRE "Power Metal"
REM DATE 2002
REM DISCID 7C0AD70A
REM COMMENT "ExactAudioCopy v1.3"
PERFORMER "Andra"
TITLE "Circle Of Fire"
REM COMPOSER ""
FILE "Andra - Circle Of Fire.flac" WAVE
TRACK 01 AUDIO
TITLE "Bloody Lies"
PERFORMER "Andra"
REM COMPOSER ""
FLAGS DCP
INDEX 01 00:00:00
TRACK 02 AUDIO
TITLE "Love Changes To Hate"
PERFORMER "Andra"
REM COMPOSER ""
FLAGS DCP
INDEX 00 04:18:74
INDEX 01 04:20:74
TRACK 03 AUDIO
TITLE "False Religion"
PERFORMER "Andra"
REM COMPOSER ""
FLAGS DCP
INDEX 00 07:43:21
INDEX 01 07:45:21
TRACK 04 AUDIO
TITLE "Ratrace"
PERFORMER "Andra"
REM COMPOSER ""
FLAGS DCP
INDEX 00 12:34:01
INDEX 01 12:36:01
TRACK 05 AUDIO
TITLE "Broken Mirrors"
PERFORMER "Andra"
REM COMPOSER ""
FLAGS DCP
INDEX 00 18:31:03
INDEX 01 18:33:03
TRACK 06 AUDIO
TITLE "I Will Survive"
PERFORMER "Andra"
REM COMPOSER ""
FLAGS DCP
INDEX 00 22:49:57
INDEX 01 22:51:57
TRACK 07 AUDIO
TITLE "La Rosa Del Amor"
PERFORMER "Andra"
REM COMPOSER ""
FLAGS DCP
INDEX 00 26:40:67
INDEX 01 26:42:67
TRACK 08 AUDIO
TITLE "I Share Your Dreams"
PERFORMER "Andra"
REM COMPOSER ""
FLAGS DCP
INDEX 00 30:43:15
INDEX 01 30:45:15
TRACK 09 AUDIO
TITLE "Angel"
PERFORMER "Andra"
REM COMPOSER ""
FLAGS DCP
INDEX 00 35:11:10
INDEX 01 35:13:10
TRACK 10 AUDIO
TITLE "The Circle Of Fire"
PERFORMER "Andra"
REM COMPOSER ""
FLAGS DCP
INDEX 00 41:06:17
INDEX 01 41:08:17


Yadi

За предоставленный диск говорим спасибо Саше spryt777! :thanx:


Top
 Profile E-mail  
 
 
PostPosted: 04 Apr 2019 
Рарник и трушник
User avatar
Joined: 25 Dec 2009
Posts: 8591
Lоcаtion: Москва
Age: 53
Name: Виталий
:thanx: :thanx: :thanx: :lob:


Top
 Profile  
 
 
PostPosted: 05 Apr 2019 
Прокъмитолист
User avatar
Joined: 12 Aug 2007
Posts: 6545
Lоcаtion: Санктъ-Петербуркъ
Age: 51
Name: Олекъ
:thanx:

_________________
прокъметол - это музыко, от которово есть прок (ы)


Top
 Profile  
 
 
PostPosted: 05 Apr 2019 
Хиппей (support team)
User avatar
Joined: 30 Jul 2007
Posts: 111727
Lоcаtion: Киев (Kyiv, UA)
Age: 45
Name: Andrey
:thanx:

mirror: Ur-Files l Uloz l Narod l M-Cloud

_________________


Top
 Profile E-mail  
 
 
PostPosted: 09 Apr 2019 
Хиппей (support team)
User avatar
Joined: 30 Jul 2007
Posts: 111727
Lоcаtion: Киев (Kyiv, UA)
Age: 45
Name: Andrey
Дык, достойный альбом группа издавала и 02-м году и.. с тех пор затихла :vic:
Мощный и в тоже время почти олдовый хэви-паэйр с дамой на вокале :lob: :lob: :lob:

7/10

_________________


Top
 Profile E-mail  
 
 
PostPosted: 09 Apr 2019 
Хиппей (support team)
User avatar
Joined: 30 Jul 2007
Posts: 111727
Lоcаtion: Киев (Kyiv, UA)
Age: 45
Name: Andrey
Ой, чуть выше я уже отзыв оставлял, как только заметил =)



Топик переносится в "Бухту" :kro:

_________________


Top
 Profile E-mail  
 
Display posts from previous:  Sort by  
Post new topic Reply to topic  [ 14 posts ] 

All times are UTC + 3 hours


Who is online

Users browsing this forum: No registered users and 2 guests


You cannot post new topics in this forum
You cannot reply to topics in this forum
You cannot edit your posts in this forum
You cannot delete your posts in this forum
You cannot post attachments in this forum

Search for:
Яндекс.Метрика
Powered by phpBB © 2000, 2002, 2005, 2007 phpBB Group