\m/ 80's metal \m/

Информационно-аналитический форум "80 см пыли" (In Search We Trust) "У нас никто никуда не спешит"
Железнодорожная биржа - RailAgent
It is currently 13 Dec 2017

All times are UTC + 3 hours

Spoiler
Chat - temporary registration for foreign users (please leave your application here)







Post new topic Reply to topic  [ 108 posts ]  Go to page Previous  1, 2, 3, 4, 5, 6  Next
Author Message
 
PostPosted: 15 Jul 2008 
Просто волшебник
User avatar
Joined: 01 Mar 2008
Posts: 1244
Name: Андрей
* Перезалейте, пожалуйста: | Re-up please:
Air Pavilion - (Japan) - 1987 - Four Quarters MLP


ИЩУ Air Pavilion - Cutting Air Act 1 (1989)

Image

Genre: Hard Rock
Year: 1989
Country: Jpn/USA
Label: King Record 292A39

Line-up:
Tak Yonemochi ........................ Lead Vocals, Guitars
Masato "Bashiko" Kobayashi ... Guitars
Doug Aldrich ............................ Guitars
Masahiro Makino ...................... Bass
Shigeo "Shig" Nakajima ........... Keyboards
Tomoyuki Suzuki ...................... Drums
Lea Hart ................................... Backing Vocals

Tracklist:
01. A Lonely Heart's Bleedin'
02. Heaven's On Fire
03. Always Gonna Find You
04. Bad Bad Girls
05. (Even) Sitting Next To You
06. Trapped
07. Wasting Time
08. Dragon's Alive


Last edited by Molot on 04 Dec 2017, edited 5 times in total.
Добавил стилистику в сообщение и вторую страну-королевство прилепил к Японии


Top
 Profile  
 
 
PostPosted: 03 Jun 2010 
Труъ
User avatar
Joined: 18 Nov 2009
Posts: 126
Lоcаtion: Hellville
Age: 42
Name: Mapeк
OK then, none is lazy :drink:

Here is the coverart with lyric sheets: http://www.megaupload.com/?d=WUAKPHNV

There is some more stuff but it's hard to make a photo, kinda shiny pergament paper but it's all in japanese :crazy:
so you won't need it! :nunu:


Top
 Profile E-mail  
 
 
PostPosted: 23 Jun 2012 
Персональный статус
Joined: 05 Feb 2011
Posts: 310
Lоcаtion: Russia, Novosibirsk
Age: 43
Name: Андрей
:dash: опоздал
1989 - Cutting Air перезалейте плиз :oops:


Top
 Profile E-mail  
 
 
PostPosted: 23 Jun 2012 
хард н хэвщик (support team)
User avatar
Joined: 02 Jun 2008
Posts: 16879
Lоcаtion: Н.Новгород
Age: 30
Name: Артем
обложечки на 1994 нашлись :dance:

Image

Image

Image

Image


Top
 Profile  
 
 
PostPosted: 04 Jan 2016 
Rara avis
User avatar
Joined: 27 Jan 2009
Posts: 3997
Name: .
:dash: опоздал
1989 - Cutting Air перезалейте плиз :oops:

https://yadi.sk/d/WpeoA6y7mexLE


Top
 Profile E-mail  
 
 
PostPosted: 05 Jan 2016 
Rara avis
User avatar
Joined: 27 Jan 2009
Posts: 3997
Name: .
1989 - Cutting Air
Последняя песня на середине обрывается :dash:


Top
 Profile E-mail  
 
 
PostPosted: 03 Nov 2017 
5cm
User avatar
Joined: 29 Mar 2013
Posts: 60
Lоcаtion: Hungary
Age: 44
Name: .
:dash: опоздал
1989 - Cutting Air перезалейте плиз :oops:

https://yadi.sk/d/WpeoA6y7mexLE


Please new link! Thank you! :meloman:


Top
 Profile E-mail  
 
 
PostPosted: 04 Nov 2017 
Rara avis
User avatar
Joined: 27 Jan 2009
Posts: 3997
Name: .
Air Pavilion - 1989 - Cutting Air (Act 1)
https://yadi.sk/d/6shFE8M_3PQi45


Top
 Profile E-mail  
 
 
PostPosted: 04 Nov 2017 
Персональный статус
Joined: 05 Feb 2011
Posts: 310
Lоcаtion: Russia, Novosibirsk
Age: 43
Name: Андрей
:lloo: https://rutracker.org/forum/viewtopic.php?t=4519870


Top
 Profile E-mail  
 
 
PostPosted: 05 Nov 2017 
5cm
User avatar
Joined: 29 Mar 2013
Posts: 60
Lоcаtion: Hungary
Age: 44
Name: .
Thank you!

Best regasds!


Top
 Profile E-mail  
 
 
PostPosted: 29 Nov 2017 
Хиппей (support team)
User avatar
Joined: 30 Jul 2007
Posts: 96993
Lоcаtion: Киев (Kyiv, UA)
Age: 44
Name: Andrey
Dare-Devilina wrote:
Air Pavilion - 1989 - Cutting Air (Act 1)

:thanx:

mirror: not

_________________


Top
 Profile E-mail  
 
 
PostPosted: 29 Nov 2017 
Хиппей (support team)
User avatar
Joined: 30 Jul 2007
Posts: 96993
Lоcаtion: Киев (Kyiv, UA)
Age: 44
Name: Andrey

:thanx:

Air Pavilion - 1989 - Cutting Air (Act 1) [flac]

Image Image


mirror: Depos l Narod l M-Cloud l Drop

Image Image Image

log
Exact Audio Copy V1.0 beta 3 from 29. August 2011

EAC extraction logfile from 25. August 2013, 14:37

Air Pavilion / Cutting Air (Act 1)

Used drive : ASUS DRW-24B3ST Adapter: 1 ID: 2

Read mode : Secure
Utilize accurate stream : Yes
Defeat audio cache : Yes
Make use of C2 pointers : No

Read offset correction : 6
Overread into Lead-In and Lead-Out : No
Fill up missing offset samples with silence : Yes
Delete leading and trailing silent blocks : No
Null samples used in CRC calculations : Yes
Used interface : Native Win32 interface for Win NT & 2000

Used output format : Internal WAV Routines
Sample format : 44.100 Hz; 16 Bit; Stereo


TOC of the extracted CD

Track | Start | Length | Start sector | End sector
---------------------------------------------------------
1 | 0:00.00 | 4:30.45 | 0 | 20294
2 | 4:30.45 | 5:14.05 | 20295 | 43849
3 | 9:44.50 | 4:34.30 | 43850 | 64429
4 | 14:19.05 | 4:23.15 | 64430 | 84169
5 | 18:42.20 | 3:15.32 | 84170 | 98826
6 | 21:57.52 | 4:10.43 | 98827 | 117619
7 | 26:08.20 | 4:53.30 | 117620 | 139624
8 | 31:01.50 | 5:38.15 | 139625 | 164989


Range status and errors

Selected range

Filename C:\Users\User\Desktop\Air Pavilion - Cutting Air (Act 1).wav

Peak level 100.0 %
Extraction speed 5.7 X
Range quality 100.0 %
Test CRC 3193FEB0
Copy CRC 3193FEB0
Copy OK

No errors occurred


AccurateRip summary

Track 1 not present in database
Track 2 not present in database
Track 3 not present in database
Track 4 not present in database
Track 5 not present in database
Track 6 not present in database
Track 7 not present in database
Track 8 not present in database

None of the tracks are present in the AccurateRip database

End of status report

==== Log checksum 3C1C7AB335979FA93057999E6DA2C0EF96AD1F9F95639CC718277E27AD1FDF8D ====

cue
REM GENRE "Hard Rock"
REM DATE 1989
REM DISCID 64089708
REM COMMENT "ExactAudioCopy v1.0b3"
PERFORMER "Air Pavilion"
TITLE "Cutting Air (Act 1)"
FILE "Air Pavilion - Cutting Air (Act 1).wav" WAVE
TRACK 01 AUDIO
TITLE "A Lonely Heart's Bleedin'"
PERFORMER "Air Pavilion"
INDEX 01 00:00:00
TRACK 02 AUDIO
TITLE "Heaven's On Fire"
PERFORMER "Air Pavilion"
INDEX 00 04:29:35
INDEX 01 04:30:45
TRACK 03 AUDIO
TITLE "Always Gonna Find You"
PERFORMER "Air Pavilion"
INDEX 00 09:43:50
INDEX 01 09:44:50
TRACK 04 AUDIO
TITLE "Bad Bad Girls"
PERFORMER "Air Pavilion"
INDEX 00 14:18:05
INDEX 01 14:19:05
TRACK 05 AUDIO
TITLE "(Even) Sitting Next To You"
PERFORMER "Air Pavilion"
INDEX 00 18:41:55
INDEX 01 18:42:20
TRACK 06 AUDIO
TITLE "Trapped"
PERFORMER "Air Pavilion"
INDEX 01 21:57:52
TRACK 07 AUDIO
TITLE "Wasting Time"
PERFORMER "Air Pavilion"
INDEX 00 26:07:42
INDEX 01 26:08:20
TRACK 08 AUDIO
TITLE "Dragon's Alive"
PERFORMER "Air Pavilion"
INDEX 00 30:59:50
INDEX 01 31:01:50

_________________


Top
 Profile E-mail  
 
 
PostPosted: 30 Nov 2017 
Хиппей (support team)
User avatar
Joined: 30 Jul 2007
Posts: 96993
Lоcаtion: Киев (Kyiv, UA)
Age: 44
Name: Andrey
Rolf_63 wrote:
Air Pavilion - Cutting Air Act 1 (1989)

Какой приятный и попсовенький в меру музончик :meloman: :meloman: :meloman:

7/10

Странно, что до сих пор здесь по музыке группы никто вообще не высказался :vic:
К примеру, на данном альбоме помимо обычного мелодичного хард-рока всё замешано на арт-роке и.. некоторых элементах New Wave-фишек. Но это никак не звучит сопливо, а наоборот, весьма трушно и иногда даже строго =)

_________________


Top
 Profile E-mail  
 
 
PostPosted: 01 Dec 2017 
Хиппей (support team)
User avatar
Joined: 30 Jul 2007
Posts: 96993
Lоcаtion: Киев (Kyiv, UA)
Age: 44
Name: Andrey
Эх, всё ж какой позитивный альбом и какой группа несёт здесь позитивный музон :meloman: :kro: :kro: :kro:
Всё просто до изжоги от самодельных пригоревших конфет из сахара, мягко, задорно и попсово, по суи, но как же приятно слушать альбом, несмотря на лёгкость и доступность музыки.
Жаль, что записано всё не идеально и сведено, песни тоже не все на 100% хитовые. но как же всё-таки хорошо, Маруся, то :primaD:
И ещё забыл добавить самый главный стиль альбома и явно всей группы.
Дык, это ж AOR. Да-да, тот самый, клавишно-танцевальный почти, но умело взбитый с арт-роком и хард-роком :kro:
Клавишные? Да, есть. Валом даже. Но... они не выпирают. Их вообще можно спутать с гитарой =)..а некоторые песни даже похожи на Def Leppard времён "Истерии". Вот этим явно меня альбом и зацепил.


_________________


Top
 Profile E-mail  
 
 
PostPosted: 01 Dec 2017 
Хиппей (support team)
User avatar
Joined: 30 Jul 2007
Posts: 96993
Lоcаtion: Киев (Kyiv, UA)
Age: 44
Name: Andrey
Качну ещё два альбома этого коллектива :dance:

_________________


Top
 Profile E-mail  
 
 
PostPosted: 01 Dec 2017 
Хиппей (support team)
User avatar
Joined: 30 Jul 2007
Posts: 96993
Lоcаtion: Киев (Kyiv, UA)
Age: 44
Name: Andrey
Quote:
Tak Yonemochi : Гитара
Tim Carter : Бас-гитара
Steve Clarke : Барабаны
Toby Sadler : Клавишные
Nigel Glocker : Барабаны
John Sloman : Вокал
Paul Di'Anno : Вокал
Lea Hart : Вокал
Paul Quinn : Гитара
Eddie : Гитара
Paul Chapman : Гитара
Don Airey : Клавишные
Biff Byford : Вокал
Scott Gorham : Гитара

Это некоторые типажи, участвовавшие в записях группы.. :oops:

зы. Это я так вот постепенно начинаю изучать саму группу и её творчество :pardon:

_________________


Top
 Profile E-mail  
 
 
PostPosted: 01 Dec 2017 
Хиппей (support team)
User avatar
Joined: 30 Jul 2007
Posts: 96993
Lоcаtion: Киев (Kyiv, UA)
Age: 44
Name: Andrey
Эх, начал слушать альбом "Air Pavilion - Kaizoku" и.. чего ж звук то у него такой говёный то тоже? :cry: :esel: :esel: :esel:
Хотел врубить на всю, порадовать соседей и прохожих, а.. придётся попугать :kro:

_________________


Top
 Profile E-mail  
 
 
PostPosted: 01 Dec 2017 
Хиппей (support team)
User avatar
Joined: 30 Jul 2007
Posts: 96993
Lоcаtion: Киев (Kyiv, UA)
Age: 44
Name: Andrey
Air Pavilion - 1989 - Kaizoku [ape]

Image

mirror: Depos l Narod l M-Cloud l Drop

Несмотря на кучу известных приглашённых музыкантов, альбом вышел не таких уж и вах... :vic:

6+/10

Image

_________________


Top
 Profile E-mail  
 
 
PostPosted: 01 Dec 2017 
Хиппей (support team)
User avatar
Joined: 30 Jul 2007
Posts: 96993
Lоcаtion: Киев (Kyiv, UA)
Age: 44
Name: Andrey
Image

Хорошее название для современной музыки.. =)

_________________


Top
 Profile E-mail  
 
 
PostPosted: 01 Dec 2017 
Доктор энтомологии
User avatar
Joined: 22 Jan 2009
Posts: 8525
Lоcаtion: Даугавпилс
Age: 42
Name: Алексей
Quote:
Air Pavilion - Cutting Air Act 1 (1989)

Неплохое евро-диско :balet:


Top
 Profile  
 
 
PostPosted: 02 Dec 2017 
Хиппей (support team)
User avatar
Joined: 30 Jul 2007
Posts: 96993
Lоcаtion: Киев (Kyiv, UA)
Age: 44
Name: Andrey
Air Pavilion - 1999 - The River, The Life [flac]

Image Image Image

mirror: Depos l Narod l M-Cloud
l Drop

Image Image Image

Image Image Image

log
Exact Audio Copy V1.0 beta 1 from 15. November 2010

EAC extraction logfile from 19. March 2011, 22:00

Air Pavilion / The River/The Life

Used drive : HL-DT-STDVDRAM GH20NS10 Adapter: 0 ID: 1

Read mode : Secure
Utilize accurate stream : Yes
Defeat audio cache : Yes
Make use of C2 pointers : No

Read offset correction : 667
Overread into Lead-In and Lead-Out : No
Fill up missing offset samples with silence : Yes
Delete leading and trailing silent blocks : No
Null samples used in CRC calculations : No
Used interface : Installed external ASPI interface

Used output format : User Defined Encoder
Selected bitrate : 768 kBit/s
Quality : High
Add ID3 tag : No
Command line compressor : C:\Program Files\Exact Audio Copy\FLAC\FLAC.EXE
Additional command line options : -6 -V -T "ARTIST=%a" -T "TITLE=%t" -T "ALBUM=%g" -T "DATE=%y" -T "TRACKNUMBER=%n" -T "GENRE=%m" -T "COMMENT=%e" %j--picture="%i"%j %s -o %d


TOC of the extracted CD

Track | Start | Length | Start sector | End sector
---------------------------------------------------------
1 | 0:00.00 | 6:32.10 | 0 | 29409
2 | 6:32.10 | 4:14.57 | 29410 | 48516
3 | 10:46.67 | 4:19.63 | 48517 | 68004
4 | 15:06.55 | 4:05.30 | 68005 | 86409
5 | 19:12.10 | 4:39.15 | 86410 | 107349
6 | 23:51.25 | 4:09.42 | 107350 | 126066
7 | 28:00.67 | 5:49.70 | 126067 | 152311
8 | 33:50.62 | 5:22.68 | 152312 | 176529
9 | 39:13.55 | 4:06.65 | 176530 | 195044
10 | 43:20.45 | 7:28.30 | 195045 | 228674


Range status and errors

Selected range

Filename D:\123\Air Pavilion - The River,The Life.wav

Peak level 97.9 %
Extraction speed 1.1 X
Range quality 99.9 %
Copy CRC B8EE37D0
Copy OK

No errors occurred


AccurateRip summary

Track 1 not present in database
Track 2 not present in database
Track 3 not present in database
Track 4 not present in database
Track 5 not present in database
Track 6 not present in database
Track 7 not present in database
Track 8 not present in database
Track 9 not present in database
Track 10 not present in database

None of the tracks are present in the AccurateRip database

End of status report

cue
REM GENRE "Progressive Rock"
REM DATE 1999
REM DISCID 7C0BE90A
REM COMMENT "ExactAudioCopy v1.0b1"
PERFORMER "Air Pavilion"
TITLE "The River/The Life"
FILE "Air Pavilion - The River,The Life.flac" WAVE
TRACK 01 AUDIO
TITLE "The River/The Life"
PERFORMER "Air Pavilion"
INDEX 01 00:00:00
TRACK 02 AUDIO
TITLE "The Flood"
PERFORMER "Air Pavilion"
INDEX 00 06:31:10
INDEX 01 06:32:10
TRACK 03 AUDIO
TITLE "Great Flow"
PERFORMER "Air Pavilion"
INDEX 01 10:46:67
TRACK 04 AUDIO
TITLE "Holy River"
PERFORMER "Air Pavilion"
INDEX 01 15:06:55
TRACK 05 AUDIO
TITLE "The Canyon (The River Of Dreams)"
PERFORMER "Air Pavilion"
INDEX 00 19:09:25
INDEX 01 19:12:10
TRACK 06 AUDIO
TITLE "End Of The River"
PERFORMER "Air Pavilion"
INDEX 00 23:50:22
INDEX 01 23:51:25
TRACK 07 AUDIO
TITLE "Stream In A Tube"
PERFORMER "Air Pavilion"
INDEX 01 28:00:67
TRACK 08 AUDIO
TITLE "The Road (To Rome)"
PERFORMER "Air Pavilion"
INDEX 00 33:49:25
INDEX 01 33:50:62
TRACK 09 AUDIO
TITLE "Remembering (Instrumental)"
PERFORMER "Air Pavilion"
INDEX 01 39:13:55
TRACK 10 AUDIO
TITLE "Overture-The River/Our Lives"
PERFORMER "Air Pavilion"
INDEX 00 43:16:45
INDEX 01 43:20:45

_________________


Top
 Profile E-mail  
 
Display posts from previous:  Sort by  
Post new topic Reply to topic  [ 108 posts ]  Go to page Previous  1, 2, 3, 4, 5, 6  Next

All times are UTC + 3 hours


Who is online

Users browsing this forum: No registered users and 1 guest


You cannot post new topics in this forum
You cannot reply to topics in this forum
You cannot edit your posts in this forum
You cannot delete your posts in this forum
You cannot post attachments in this forum

Search for:
Яндекс.Метрика
Powered by phpBB © 2000, 2002, 2005, 2007 phpBB Group