\m/ 80's metal \m/

Информационно-аналитический форум "80 см пыли" (In Search We Trust) "У нас никто никуда не спешит"
Железнодорожная биржа - RailAgent
It is currently 16 Dec 2017

All times are UTC + 3 hours

Spoiler
Chat - temporary registration for foreign users (please leave your application here)







Post new topic Reply to topic  [ 9 posts ] 
Author Message
 
PostPosted: 06 Dec 2017 
5cm
User avatar
Joined: 29 Mar 2013
Posts: 60
Lоcаtion: Hungary
Age: 44
Name: .
Autograph - Stone Land 1989
Image

Line-up / Musicians
- Artur Berkut / vocals
- Alexander Sitkovetsky / guitar
- Rouslan Valonen / keyboards, programming, co-producer
- Sergey Mazaev / sax, vocals
- Leonid Gutkin / bass
- Viktor Mikhalin / drums, programming

Songs / Tracks Listing
1. Город / The City (4:28)
2. О, мой мальчик / Oh, My Boy (4:28)
3. Я люблю / I Need You (5:06)
4. Странник / Stranger (5:32)
5. Казенный демон / Demon (4:43)
6. Колокол / The Bell (4:26)
7. Мастер / Master (5:24)
8. Камень / Stone (4:26)
CD bonus tracks:
9. Амур / Amour (5:01)
10. Мир в себе / World Inside (5:20)


Top
 Profile E-mail  
 
 
PostPosted: 06 Dec 2017 
Rara avis
User avatar
Joined: 27 Jan 2009
Posts: 3997
Name: .
https://rutracker.org/forum/viewtopic.php?t=5306788
https://rutracker.org/forum/viewtopic.php?t=5037139


Top
 Profile E-mail  
 
 
PostPosted: 06 Dec 2017 
Хиппей (support team)
User avatar
Joined: 30 Jul 2007
Posts: 97141
Lоcаtion: Киев (Kyiv, UA)
Age: 44
Name: Andrey
rockpanorama

Немедленно прекратите запрашивать те альбомы, которые и так всюду есть.

_________________


Top
 Profile E-mail  
 
 
PostPosted: 06 Dec 2017 
Хиппей (support team)
User avatar
Joined: 30 Jul 2007
Posts: 97141
Lоcаtion: Киев (Kyiv, UA)
Age: 44
Name: Andrey
Или нужен именно в mp3? :tro:

_________________


Top
 Profile E-mail  
 
 
PostPosted: 06 Dec 2017 
5cm
User avatar
Joined: 29 Mar 2013
Posts: 60
Lоcаtion: Hungary
Age: 44
Name: .
https://rutracker.org/forum/viewtopic.php?t=5306788
https://rutracker.org/forum/viewtopic.php?t=5037139


Thank You! :lob:


Top
 Profile E-mail  
 
 
PostPosted: 06 Dec 2017 
Хиппей (support team)
User avatar
Joined: 30 Jul 2007
Posts: 97141
Lоcаtion: Киев (Kyiv, UA)
Age: 44
Name: Andrey
Запрос выполнен?

_________________


Top
 Profile E-mail  
 
 
PostPosted: 06 Dec 2017 
5cm
User avatar
Joined: 29 Mar 2013
Posts: 60
Lоcаtion: Hungary
Age: 44
Name: .
Yes! :blum:


Top
 Profile E-mail  
 
 
PostPosted: 07 Dec 2017 
Хиппей (support team)
User avatar
Joined: 30 Jul 2007
Posts: 97141
Lоcаtion: Киев (Kyiv, UA)
Age: 44
Name: Andrey
Ok :kro:

_________________


Top
 Profile E-mail  
 
 
PostPosted: 07 Dec 2017 
Хиппей (support team)
User avatar
Joined: 30 Jul 2007
Posts: 97141
Lоcаtion: Киев (Kyiv, UA)
Age: 44
Name: Andrey
https://rutracker.org/forum/viewtopic.php?t=5306788


:thanx:

Забрал рип по первой ссылке.

Image Image

mirror: Depos l Narod l M-Cloud l Drop

Раньще альбом полностью не слушал и винила эжтого не было в коллекции малой. Но 2-4 песни очень знакомы.
Да, таки качественный прог-хард по западным образцам с русскоязычной лирикой и Беркутом на вокале :kro:

6+/10

Image Image

Info
Автограф ‎– Каменный Край
Label:
Мелодия ‎– С60 28741 005
Format:
Vinyl, LP, Album, Red Label
Country:
USSR
Released:
1989
Genre:
Rock
Style:
Prog Rock
Tracklist Hide Credits
A1 Город
A2 О, Мой Мальчик
A3 Я Люблю
Lyrics By – В. Михалин*
Producer – Аллен Рой Скотт*, Майкл МакДональд*
5:04
A4 Странник 5:30
B1 Казенный Демон 4:40
B2 Колокол 4:23
B3 Мастер 5:20
B4 Камень 4:23
Companies, etc.
Recorded At – Trax Studio (3)
Recorded At – МДМ
Record Company – Всесоюзная Студия Грамзаписи
Copyright (c) – ВТПО "Фирма Мелодия"
Pressed By – Ташкентский Завод Грампластинок им. М. Т. Ташмухамедова
Manufactured By – ВФГ "Мелодия"
Credits
Artwork [Художественное оформление] – А. Колосов*
Bass Guitar – Леонид Гуткин
Drums, Programmed By – Виктор Михалин
Engineer – И. Замараев*, Р. Валонен*
Engineer [Assistant] – И. Евдокимов*
Guitar – Александр Ситковецкий
Keyboards, Programmed By – Руслан Валонен
Lyrics By – С. Патрушев* (tracks: A1, A2, A4 to B4)
Music By – Автограф
Producer – Автограф, Руслан Валонен
Supervised By [Редактор] – Ю. Потеенко*
Vocals – Артур Беркут
Vocals, Saxophone – Сергей Мазаев
Notes
Total duration of A1 and A2 is 8:36
(3) Студия "TRAX", Лос-Анджелес, Калифорния

© ВТПО «ФИРМА МЕЛОДИЯ», 1989. Всесоюзная студия грамзаписи
Запись студии Московского Дворца молодежи, 1989 г.

Ташкентский завод грампластинок им. М.Т. Ташмухамедова.

Var.1: Зак. 245. Тираж 4700
Var.2: Зак. 414 тираж 32500
Var.3: Зак. 215 тираж 11500
Var.4:Зак.146 тираж 5000
Арт. 11-1. Цена 2 руб. 50 коп.
Barcode and Other Identifiers
Matrix / Runout (A-side Run-out, Stamped [Var. 2, 3]): С60-28741/1-1 DMM
Matrix / Runout (B-side Run-out, Stamped [Var. 2, 3]): С60-28742/1-2 DMM
Other (A-side Label Number): 28741
Other (B-side Label Number): 28742
Other (State Standard): ГОСТ 5289-88
Other (Repertory Group): Гр. 3.
Other (Price - Label): 2-25


cue
REM GENRE Rock, Prog Rock
REM DATE 1989
PERFORMER "Автограф"
TITLE "Каменный Край"
FILE "A.wv" WAVE
TRACK 01 AUDIO
TITLE "Город"
INDEX 01 00:00:00
PERFORMER "Автограф"
TRACK 02 AUDIO
TITLE "О, Мой Мальчик"
INDEX 01 04:26:60
PERFORMER "Автограф"
TRACK 03 AUDIO
TITLE "Я Люблю"
INDEX 01 08:38:80
PERFORMER "Автограф"
TRACK 04 AUDIO
TITLE "Странник"
INDEX 01 13:46:60
PERFORMER "Автограф"

FILE "B.wv" WAVE
TRACK 05 AUDIO
TITLE "Казенный Демон"
PERFORMER "Автограф"
INDEX 01 00:00:00
TRACK 06 AUDIO
TITLE "Колокол"
PERFORMER "Автограф"
INDEX 01 04:45:00
TRACK 07 AUDIO
TITLE "Мастер"
PERFORMER "Автограф"
INDEX 01 09:12:90
TRACK 08 AUDIO
TITLE "Камень"
PERFORMER "Автограф"
INDEX 01 14:36:60

_________________


Top
 Profile E-mail  
 
Display posts from previous:  Sort by  
Post new topic Reply to topic  [ 9 posts ] 

All times are UTC + 3 hours


Who is online

Users browsing this forum: No registered users and 3 guests


You cannot post new topics in this forum
You cannot reply to topics in this forum
You cannot edit your posts in this forum
You cannot delete your posts in this forum
You cannot post attachments in this forum

Search for:
Яндекс.Метрика
Powered by phpBB © 2000, 2002, 2005, 2007 phpBB Group